(Heavy Metal) Bullet - Storm Of Blades - 2014 [FLAC, image+.cue, lossless]

 
Автор Сообщение

sergej644 ®

Пол:

Стаж: 4 года 11 месяцев

Сообщений: 6042

Откуда: Soviet Union



Награды: Нет

Торрент-статистика

Создавать темы 23-Окт-2014 16:29

[Цитировать]

-Bullet / Storm Of Blades-- Год издания: 2014
Страна: Sweden
Жанр: Heavy Metal
Продолжительность: 00:38:28-Лейбл издания: Nuclear Blast
Страна-выпуска диска: Germany,USA
Номер по каталогу: 27361 32270
Формат: FLAC
Битрейт аудио: lossless
Тип рипа: image+.cue
Наличие сканов в содержимом раздачи: да
-

Трэклист

01.Uprising (00:59)
02.Storm Of Blades (03:37)
03.Riding High (03:00)
04.Tornado (03:14)
05.Hawk Eyes (03:34)
06.This One's For You (03:25)
07.Hammer Down (04:08)
08.It's On (03:06)
09.Crossfire (04:17)
10.Run With The Hunted (04:13)
11.Coming In Loud (04:50)

Лог создания рипа

Exact Audio Copy V1.0 beta 3 from 29. August 2011
Отчёт EAC об извлечении, выполненном 21. октября 2014, 20:43
Bullet / Storm Of Blades
Дисковод: _NEC    DVD_RW ND-4570A   Adapter: 3  ID: 0
Режим чтения                 : Достоверность
Использование точного потока : Да
Отключение кэша аудио        : Да
Использование указателей C2  : Нет
Коррекция смещения при чтении                     : 48
Способность читать области Lead-in и Lead-out     : Нет
Заполнение пропущенных сэмплов тишиной            : Да
Удаление блоков с тишиной в начале и конце        : Нет
При вычислениях CRC использовались нулевые сэмплы : Да
Интерфейс                                         : Встроенный Win32-интерфейс для Win NT/2000
Выходной формат          : Пользовательский кодировщик
Выбранный битрейт        : 768 kBit/s
Качество                 : Высокий
Добавление ID3-тега      : Нет
Утилита сжатия           : C:\Program Files\Exact Audio Copy\FLAC\FLAC.EXE
Дополнительные параметры : -6 -V -T "ARTIST=%artist%" -T "TITLE=%title%" -T "ALBUM=%albumtitle%" -T "DATE=%year%" -T "TRACKNUMBER=%tracknr%" -T "GENRE=%genre%" -T "COMMENT=%comment%" -T "BAND=%albuminterpret%" -T "ALBUMARTIST=%albuminterpret%" -T "COMPOSER=%composer%" %haslyrics%--tag-from-file=LYRICS="%lyricsfile%"%haslyrics% -T "DISCNUMBER=%cdnumber%" -T "TOTALDISCS=%totalcds%" -T "TOTALTRACKS=%numtracks%" %hascover%--picture="%coverfile%"%hascover% %source% -o %dest%
TOC извлечённого CD
     Трек |   Старт  | Длительность | Начальный сектор | Конечный сектор
    ---------------------------------------------------------------------
       1  |  0:00.00 |    0:59.53   |           0      |       4477
       2  |  0:59.53 |    3:37.57   |        4478      |      20809
       3  |  4:37.35 |    3:00.24   |       20810      |      34333
       4  |  7:37.59 |    3:14.16   |       34334      |      48899
       5  | 10:52.00 |    3:34.39   |       48900      |      64988
       6  | 14:26.39 |    3:25.41   |       64989      |      80404
       7  | 17:52.05 |    4:08.32   |       80405      |      99036
       8  | 22:00.37 |    3:06.25   |       99037      |     113011
       9  | 25:06.62 |    4:17.64   |      113012      |     132350
      10  | 29:24.51 |    4:13.56   |      132351      |     151381
      11  | 33:38.32 |    4:50.01   |      151382      |     173132
Характеристики диапазона извлечения и сообщения об ошибках
Выбранный диапазон
     Имя файла D:\My UPLOADS-2\Bullet - Storm Of Blades - 2014 - 38'30''\Bullet - Storm Of Blades.wav
     Пиковый уровень 99.7 %
     Скорость извлечения 4.8 X
     Качество диапазона 100.0 %
     CRC теста A6DA4A2F
     CRC копии A6DA4A2F
     Копирование... OK
Ошибок не произошло
Конец отчёта

Индексная карта (non-compilant .cue)

REM GENRE "Hard Rock"
REM DATE 2014
REM DISCID 8C09040B
REM COMMENT "ExactAudioCopy v1.0b3"
PERFORMER "Bullet"
TITLE "Storm Of Blades"
FILE "Bullet - Storm Of Blades.flac" WAVE
  TRACK 01 AUDIO
    TITLE "Uprising"
    PERFORMER "Bullet"
    FLAGS DCP
    INDEX 01 00:00:00
  TRACK 02 AUDIO
    TITLE "Storm Of Blades"
    PERFORMER "Bullet"
    FLAGS DCP
    INDEX 01 00:59:53
  TRACK 03 AUDIO
    TITLE "Riding High"
    PERFORMER "Bullet"
    FLAGS DCP
    INDEX 01 04:37:35
  TRACK 04 AUDIO
    TITLE "Tornado"
    PERFORMER "Bullet"
    FLAGS DCP
    INDEX 01 07:37:59
  TRACK 05 AUDIO
    TITLE "Hawk Eyes"
    PERFORMER "Bullet"
    FLAGS DCP
    INDEX 01 10:52:00
  TRACK 06 AUDIO
    TITLE "This One's For You"
    PERFORMER "Bullet"
    FLAGS DCP
    INDEX 01 14:26:39
  TRACK 07 AUDIO
    TITLE "Hammer Down"
    PERFORMER "Bullet"
    FLAGS DCP
    INDEX 01 17:52:05
  TRACK 08 AUDIO
    TITLE "It's On"
    PERFORMER "Bullet"
    FLAGS DCP
    INDEX 01 22:00:37
  TRACK 09 AUDIO
    TITLE "Crossfire"
    PERFORMER "Bullet"
    FLAGS DCP
    INDEX 01 25:06:62
  TRACK 10 AUDIO
    TITLE "Run With The Hunted"
    PERFORMER "Bullet"
    FLAGS DCP
    INDEX 01 29:24:51
  TRACK 11 AUDIO
    TITLE "Coming In Loud"
    PERFORMER "Bullet"
    FLAGS DCP
    INDEX 01 33:38:32
--
[Профиль] [ЛС]
Показать сообщения:    

Текущее время: Сегодня 16:15

Часовой пояс: GMT



Вы не можете начинать темы
Вы не можете отвечать на сообщения
Вы не можете редактировать свои сообщения
Вы не можете удалять свои сообщения
Вы не можете голосовать в опросах
Вы не можете прикреплять файлы к сообщениям
Вы не можете скачивать файлы