(Rock)Bryan Adams - Tracks Of My Years (Deluxe edition) - 2014, FLAC (image+.cue), lossless

 
Автор Сообщение

sergej644 ®

Пол:

Стаж: 4 года 11 месяцев

Сообщений: 6038

Откуда: Soviet Union



Награды: Нет

Торрент-статистика

Создавать темы 18-Дек-2014 15:10

[Цитировать]

Bryan Adams / Tracks Of My Years (Deluxe edition)
Жанр: Rock
Носитель: CD
Страна-производитель диска: E.U.
Год издания: 2014
Издатель (лейбл): Polydor / Badman Limited
Номер по каталогу: 3795592
Страна исполнителя (группы): Canada
Аудиокодек: FLAC (*.flac)
Тип рипа: image+.cue
Битрейт аудио: lossless
Продолжительность: 51:22
Источник (релизер): Свой рип
Наличие сканов в содержимом раздачи: да
Треклист:
1. Any Time At All
2. She Knows Me
3. I Can't Stop Loving You
4. Kiss And Say Goodbye
5. Lay Lady Lay
6. Rock And Roll Music
7. Down On The Corner
8. Never My Love
9. Sunny
10. The Tracks Of My Tears
11. God Only Knows
Bonus tracks:
12. You've Been A Friend To Me
13. Help Me Make It Through The Night
14. C'mon Everybody
15. Many Rivers To Cross
16. You Shook Me

Лог создания рипа

Exact Audio Copy V1.0 beta 3 from 29. August 2011
EAC extraction logfile from 27. October 2014, 21:36
Bryan Adams / Tracks Of My Years
Used drive  : Optiarc DVD-ROM DDU1675S   Adapter: 3  ID: 0
Read mode               : Secure
Utilize accurate stream : Yes
Defeat audio cache      : Yes
Make use of C2 pointers : No
Read offset correction                      : 6
Overread into Lead-In and Lead-Out          : No
Fill up missing offset samples with silence : Yes
Delete leading and trailing silent blocks   : No
Null samples used in CRC calculations       : Yes
Used interface                              : Native Win32 interface for Win NT & 2000
Used output format              : User Defined Encoder
Selected bitrate                : 1024 kBit/s
Quality                         : High
Add ID3 tag                     : No
Command line compressor         : C:\Program Files (x86)\Exact Audio Copy\FLAC\FLAC.EXE
Additional command line options : -V -8 -T "Date=%year%" -T "Genre=%genre%" %source%
TOC of the extracted CD
     Track |   Start  |  Length  | Start sector | End sector
    ---------------------------------------------------------
        1  |  0:00.00 |  2:35.20 |         0    |    11644
        2  |  2:35.20 |  3:37.72 |     11645    |    27991
        3  |  6:13.17 |  3:39.34 |     27992    |    44450
        4  |  9:52.51 |  3:10.46 |     44451    |    58746
        5  | 13:03.22 |  3:34.74 |     58747    |    74870
        6  | 16:38.21 |  2:34.26 |     74871    |    86446
        7  | 19:12.47 |  2:39.30 |     86447    |    98401
        8  | 21:52.02 |  3:17.41 |     98402    |   113217
        9  | 25:09.43 |  3:31.50 |    113218    |   129092
       10  | 28:41.18 |  2:56.21 |    129093    |   142313
       11  | 31:37.39 |  3:30.14 |    142314    |   158077
       12  | 35:07.53 |  2:49.60 |    158078    |   170812
       13  | 37:57.38 |  2:40.07 |    170813    |   182819
       14  | 40:37.45 |  2:49.58 |    182820    |   195552
       15  | 43:27.28 |  4:08.39 |    195553    |   214191
       16  | 47:35.67 |  3:46.42 |    214192    |   231183
Range status and errors
Selected range
     Filename E:\Torrent\# MY\Bryan Adams - Tracks Of My Years (2014) (Deluxe edition) (Polydor, 3795592, E.U.)\Bryan Adams - Tracks Of My Years.wav
     Peak level 100.0 %
     Extraction speed 4.4 X
     Range quality 100.0 %
     Test CRC 65413AA1
     Copy CRC 65413AA1
     Copy OK
No errors occurred
AccurateRip summary
Track  1  not present in database
Track  2  not present in database
Track  3  not present in database
Track  4  not present in database
Track  5  not present in database
Track  6  not present in database
Track  7  not present in database
Track  8  not present in database
Track  9  not present in database
Track 10  not present in database
Track 11  not present in database
Track 12  not present in database
Track 13  not present in database
Track 14  not present in database
Track 15  not present in database
Track 16  not present in database
None of the tracks are present in the AccurateRip database
End of status report
---- CUETools DB Plugin V2.1.3
[CTDB TOCID: 5JXl1xhJSGculDvDqp5IP6Gb8D8-] found, Submit result: 5JXl1xhJSGculDvDqp5IP6Gb8D8- has been confirmed
[b29ea8a5] (5/6) Accurately ripped
[e609a5b3] (1/6) No match
==== Log checksum 162E8539C21F8F4CC7300DCA1DBE2A53AF5214E9861C6256FFE866DFBF332677 ====
[Профиль] [ЛС]
Кто просматривает тему:

Форум Тема Автор Размер
Rock (Rock)Bryan Adams - Reckless (30th Anniversary Deluxe Edition) - 2014, FLAC (tracks+.cue), lossless sergej644 898 MB
Показать сообщения:    

Текущее время: Сегодня 12:36

Часовой пояс: GMT



Вы не можете начинать темы
Вы не можете отвечать на сообщения
Вы не можете редактировать свои сообщения
Вы не можете удалять свои сообщения
Вы не можете голосовать в опросах
Вы не можете прикреплять файлы к сообщениям
Вы не можете скачивать файлы