(Rock)Bryan Adams - Reckless (30th Anniversary Deluxe Edition) - 2014, FLAC (tracks+.cue), lossless

 
Автор Сообщение

sergej644 ®

Пол:

Стаж: 4 года 11 месяцев

Сообщений: 6045

Откуда: Soviet Union



Награды: Нет

Торрент-статистика

Создавать темы 18-Дек-2014 15:06

[Цитировать]

Bryan Adams / Reckless (30th Anniversary Deluxe Edition)
Жанр: Rock
Носитель: CD
Страна-производитель диска (релиза): EU & UK
Год издания: 2014
Издатель (лейбл): Universal
Номер по каталогу: 602537830541
Аудиокодек: FLAC (*.flac)
Тип рипа: tracks+.cue
Битрейт аудио: lossless
Продолжительность: 02:09:41
Источник (релизер): what.cd
Наличие сканов в содержимом раздачи: да (front)
Треклист:

CD 1

01. Bryan Adams - One Night Love Affair (4:34)
02. Bryan Adams - She's Only Happy When She's Dancin' (3:13)
03. Bryan Adams - Run To You (3:53)
04. Bryan Adams - Heaven (4:03)
05. Bryan Adams - Somebody (4:43)
06. Bryan Adams - Summer Of '69 (3:36)
07. Bryan Adams - Kids Wanna Rock (2:35)
08. Bryan Adams with Tina Turner - It's Only Love (3:15)
09. Bryan Adams - Long Gone (3:58)
10. Bryan Adams - Ain't Gonna Cry (4:07)
11. Bryan Adams - Let Me Down Easy (3:40)
12. Bryan Adams - Teacher, Teacher (3:47)
13. Bryan Adams - The Boys Night Out (3:52)
14. Bryan Adams - Draw The Line (3:25)
15. Bryan Adams - Play To Win (3:28)
16. Bryan Adams - Too Hot To Handle (4:01)
17. Bryan Adams - Reckless (4:03)

CD 2 (Live)

01. Bryan Adams - Remember (4:32)
02. Bryan Adams - The Only One (4:39)
03. Bryan Adams - It's Only Love (3:50)
04. Bryan Adams - Kids Wanna Rock (3:16)
05. Bryan Adams - Long Gone (6:20)
06. Bryan Adams - Cuts Like a Knife (5:38)
07. Bryan Adams - Lonely Nights (3:54)
08. Bryan Adams - Tonight (6:12)
09. Bryan Adams - This Time (3:36)
10. Bryan Adams - The Best Was Yet to Come (2:42)
11. Bryan Adams - Heaven (4:03)
12. Bryan Adams - Run To You (4:29)
13. Bryan Adams - Somebody (4:20)
14. Bryan Adams - Straight From the Heart (3:16)
15. Bryan Adams - Summer of '69 (4:41)
10. Bryan Adams - Ain't Gonna Cry (4:07)
11. Bryan Adams - Let Me Down Easy (3:40)
12. Bryan Adams - Teacher, Teacher (3:46)
13. Bryan Adams - The Boys Night Out (3:52)
14. Bryan Adams - Draw The Line (3:25)
15. Bryan Adams - Play To Win (3:28)
16. Bryan Adams - Too Hot To Handle (4:01)
17. Bryan Adams - Reckless (4:03)

Лог создания рипа CD 1

Exact Audio Copy V1.0 beta 3 from 29. August 2011
EAC extraction logfile from 21. November 2014, 15:57
Bryan Adams / Reckless
Used drive  : ASUS    DRW-24D3ST   Adapter: 1  ID: 1
Read mode               : Secure
Utilize accurate stream : Yes
Defeat audio cache      : Yes
Make use of C2 pointers : No
Read offset correction                      : 6
Overread into Lead-In and Lead-Out          : No
Fill up missing offset samples with silence : Yes
Delete leading and trailing silent blocks   : No
Null samples used in CRC calculations       : Yes
Used interface                              : Native Win32 interface for Win NT & 2000
Gap handling                                : Appended to previous track
Used output format              : User Defined Encoder
Selected bitrate                : 896 kBit/s
Quality                         : Low
Add ID3 tag                     : No
Command line compressor         : C:\Windows\System32\cmd.exe
Additional command line options : /K eac3.cmd %source% "%albumartist%" "%albumtitle%" %year% %tracknr% %numtracks% "%title%" "%artist%" "%genre%" %cdnumber% %totalcds% "%comment%"
TOC of the extracted CD
     Track |   Start  |  Length  | Start sector | End sector
    ---------------------------------------------------------
        1  |  0:00.00 |  4:34.02 |         0    |    20551
        2  |  4:34.02 |  3:13.35 |     20552    |    35061
        3  |  7:47.37 |  3:53.16 |     35062    |    52552
        4  | 11:40.53 |  4:03.27 |     52553    |    70804
        5  | 15:44.05 |  4:43.29 |     70805    |    92058
        6  | 20:27.34 |  3:36.04 |     92059    |   108262
        7  | 24:03.38 |  2:35.30 |    108263    |   119917
        8  | 26:38.68 |  3:14.47 |    119918    |   134514
        9  | 29:53.40 |  3:58.33 |    134515    |   152397
       10  | 33:51.73 |  4:07.09 |    152398    |   170931
       11  | 37:59.07 |  3:39.48 |    170932    |   187404
       12  | 41:38.55 |  3:46.67 |    187405    |   204421
       13  | 45:25.47 |  3:52.30 |    204422    |   221851
       14  | 49:18.02 |  3:24.63 |    221852    |   237214
       15  | 52:42.65 |  3:27.48 |    237215    |   252787
       16  | 56:10.38 |  4:00.55 |    252788    |   270842
       17  | 60:11.18 |  4:02.40 |    270843    |   289032
Track  1
     Filename T:\EACtmp\01 - One Night Love Affair.wav
     Pre-gap length  0:00:02.00
     Peak level 100.0 %
     Extraction speed 4.9 X
     Track quality 100.0 %
     Test CRC 64DD9372
     Copy CRC 64DD9372
     Track not present in AccurateRip database
     Copy OK
Track  2
     Filename T:\EACtmp\02 - She's Only Happy When She's Dancin'.wav
     Peak level 99.4 %
     Extraction speed 5.0 X
     Track quality 100.0 %
     Test CRC 43A36F72
     Copy CRC 43A36F72
     Track not present in AccurateRip database
     Copy OK
Track  3
     Filename T:\EACtmp\03 - Run To You.wav
     Peak level 100.0 %
     Extraction speed 5.6 X
     Track quality 100.0 %
     Test CRC 93297136
     Copy CRC 93297136
     Track not present in AccurateRip database
     Copy OK
Track  4
     Filename T:\EACtmp\04 - Heaven.wav
     Peak level 100.0 %
     Extraction speed 5.0 X
     Track quality 99.9 %
     Test CRC 882585A7
     Copy CRC 882585A7
     Track not present in AccurateRip database
     Copy OK
Track  5
     Filename T:\EACtmp\05 - Somebody.wav
     Peak level 99.9 %
     Extraction speed 6.4 X
     Track quality 100.0 %
     Test CRC 9116EDA7
     Copy CRC 9116EDA7
     Track not present in AccurateRip database
     Copy OK
Track  6
     Filename T:\EACtmp\06 - Summer Of '69.wav
     Peak level 99.5 %
     Extraction speed 6.5 X
     Track quality 100.0 %
     Test CRC 5380BD33
     Copy CRC 5380BD33
     Track not present in AccurateRip database
     Copy OK
Track  7
     Filename T:\EACtmp\07 - Kids Wanna Rock.wav
     Peak level 99.4 %
     Extraction speed 6.2 X
     Track quality 100.0 %
     Test CRC 28885840
     Copy CRC 28885840
     Track not present in AccurateRip database
     Copy OK
Track  8
     Filename T:\EACtmp\08 - It's Only Love.wav
     Peak level 99.6 %
     Extraction speed 7.1 X
     Track quality 100.0 %
     Test CRC 7621E50C
     Copy CRC 7621E50C
     Track not present in AccurateRip database
     Copy OK
Track  9
     Filename T:\EACtmp\09 - Long Gone.wav
     Peak level 99.6 %
     Extraction speed 7.6 X
     Track quality 100.0 %
     Test CRC 3B3FC346
     Copy CRC 3B3FC346
     Track not present in AccurateRip database
     Copy OK
Track 10
     Filename T:\EACtmp\10 - Ain't Gonna Cry.wav
     Peak level 100.0 %
     Extraction speed 7.8 X
     Track quality 100.0 %
     Test CRC 3CEE80FC
     Copy CRC 3CEE80FC
     Track not present in AccurateRip database
     Copy OK
Track 11
     Filename T:\EACtmp\11 - Let Me Down Easy.wav
     Pre-gap length  0:00:00.27
     Peak level 100.0 %
     Extraction speed 7.8 X
     Track quality 100.0 %
     Test CRC 9E7024EA
     Copy CRC 9E7024EA
     Track not present in AccurateRip database
     Copy OK
Track 12
     Filename T:\EACtmp\12 - Teacher, Teacher.wav
     Pre-gap length  0:00:01.18
     Peak level 100.0 %
     Extraction speed 8.2 X
     Track quality 100.0 %
     Test CRC FA8A695B
     Copy CRC FA8A695B
     Track not present in AccurateRip database
     Copy OK
Track 13
     Filename T:\EACtmp\13 - The Boys Night Out.wav
     Pre-gap length  0:00:01.07
     Peak level 100.0 %
     Extraction speed 6.9 X
     Track quality 99.9 %
     Test CRC B7E052F9
     Copy CRC B7E052F9
     Track not present in AccurateRip database
     Copy OK
Track 14
     Filename T:\EACtmp\14 - Draw The Line.wav
     Pre-gap length  0:00:01.21
     Peak level 100.0 %
     Extraction speed 6.8 X
     Track quality 99.9 %
     Test CRC 34B62028
     Copy CRC 34B62028
     Track not present in AccurateRip database
     Copy OK
Track 15
     Filename T:\EACtmp\15 - Play To Win.wav
     Pre-gap length  0:00:01.47
     Peak level 100.0 %
     Extraction speed 8.7 X
     Track quality 100.0 %
     Test CRC 82E279EF
     Copy CRC 82E279EF
     Track not present in AccurateRip database
     Copy OK
Track 16
     Filename T:\EACtmp\16 - Too Hot To Handle.wav
     Pre-gap length  0:00:01.36
     Peak level 100.0 %
     Extraction speed 9.1 X
     Track quality 100.0 %
     Test CRC 2A868AF0
     Copy CRC 2A868AF0
     Track not present in AccurateRip database
     Copy OK
Track 17
     Filename T:\EACtmp\17 - Reckless.wav
     Pre-gap length  0:00:01.62
     Peak level 100.0 %
     Extraction speed 9.2 X
     Track quality 100.0 %
     Test CRC 13F69D74
     Copy CRC 13F69D74
     Track not present in AccurateRip database
     Copy OK
None of the tracks are present in the AccurateRip database
No errors occurred
End of status report
---- CUETools DB Plugin V2.1.3
[CTDB TOCID: BVizkTfLyIBJ_rRXycgdGLRT8xc-] found, Submit result: BVizkTfLyIBJ_rRXycgdGLRT8xc- has been confirmed
[10d7c4bc] (4/4) Accurately ripped
==== Log checksum 009E035ADECA71675D0900FA134B08B7F97824E75E0295F4C6ED286F568CB507 ====

Лог создания рипа CD 2

Exact Audio Copy V1.0 beta 3 from 29. August 2011
EAC extraction logfile from 21. November 2014, 16:52
Bryan Adams / Reckless
Used drive  : ASUS    DRW-24D3ST   Adapter: 1  ID: 1
Read mode               : Secure
Utilize accurate stream : Yes
Defeat audio cache      : Yes
Make use of C2 pointers : No
Read offset correction                      : 6
Overread into Lead-In and Lead-Out          : No
Fill up missing offset samples with silence : Yes
Delete leading and trailing silent blocks   : No
Null samples used in CRC calculations       : Yes
Used interface                              : Native Win32 interface for Win NT & 2000
Gap handling                                : Appended to previous track
Used output format              : User Defined Encoder
Selected bitrate                : 896 kBit/s
Quality                         : Low
Add ID3 tag                     : No
Command line compressor         : C:\Windows\System32\cmd.exe
Additional command line options : /K eac3.cmd %source% "%albumartist%" "%albumtitle%" %year% %tracknr% %numtracks% "%title%" "%artist%" "%genre%" %cdnumber% %totalcds% "%comment%"
TOC of the extracted CD
     Track |   Start  |  Length  | Start sector | End sector
    ---------------------------------------------------------
        1  |  0:00.00 |  4:31.66 |         0    |    20390
        2  |  4:31.66 |  4:38.47 |     20391    |    41287
        3  |  9:10.38 |  3:49.40 |     41288    |    58502
        4  | 13:00.03 |  3:15.41 |     58503    |    73168
        5  | 16:15.44 |  6:20.13 |     73169    |   101681
        6  | 22:35.57 |  5:38.60 |    101682    |   127091
        7  | 28:14.42 |  3:54.13 |    127092    |   144654
        8  | 32:08.55 |  6:12.20 |    144655    |   172574
        9  | 38:21.00 |  3:35.65 |    172575    |   188764
       10  | 41:56.65 |  2:42.23 |    188765    |   200937
       11  | 44:39.13 |  4:02.67 |    200938    |   219154
       12  | 48:42.05 |  4:29.11 |    219155    |   239340
       13  | 53:11.16 |  4:19.38 |    239341    |   258803
       14  | 57:30.54 |  3:15.53 |    258804    |   273481
       15  | 60:46.32 |  4:40.65 |    273482    |   294546
Track  1
     Filename T:\EACtmp\01 - Remember.wav
     Pre-gap length  0:00:02.00
     Peak level 98.9 %
     Extraction speed 4.1 X
     Track quality 99.9 %
     Test CRC B42FD61B
     Copy CRC B42FD61B
     Track not present in AccurateRip database
     Copy OK
Track  2
     Filename T:\EACtmp\02 - The Only One.wav
     Peak level 98.9 %
     Extraction speed 5.4 X
     Track quality 100.0 %
     Test CRC 77005EEC
     Copy CRC 77005EEC
     Track not present in AccurateRip database
     Copy OK
Track  3
     Filename T:\EACtmp\03 - It's Only Love.wav
     Peak level 98.9 %
     Extraction speed 5.7 X
     Track quality 100.0 %
     Test CRC EDA85083
     Copy CRC EDA85083
     Track not present in AccurateRip database
     Copy OK
Track  4
     Filename T:\EACtmp\04 - Kids Wanna Rock.wav
     Peak level 98.9 %
     Extraction speed 4.7 X
     Track quality 99.9 %
     Test CRC E3FD4721
     Copy CRC E3FD4721
     Track not present in AccurateRip database
     Copy OK
Track  5
     Filename T:\EACtmp\05 - Long Gone.wav
     Peak level 98.9 %
     Extraction speed 6.8 X
     Track quality 100.0 %
     Test CRC 00758F86
     Copy CRC 00758F86
     Track not present in AccurateRip database
     Copy OK
Track  6
     Filename T:\EACtmp\06 - Cuts Like a Knife.wav
     Peak level 98.9 %
     Extraction speed 7.3 X
     Track quality 100.0 %
     Test CRC 100A4EC9
     Copy CRC 100A4EC9
     Track not present in AccurateRip database
     Copy OK
Track  7
     Filename T:\EACtmp\07 - Lonely Nights.wav
     Peak level 98.8 %
     Extraction speed 7.3 X
     Track quality 100.0 %
     Test CRC A5B3D336
     Copy CRC A5B3D336
     Track not present in AccurateRip database
     Copy OK
Track  8
     Filename T:\EACtmp\08 - Tonight.wav
     Peak level 98.8 %
     Extraction speed 8.0 X
     Track quality 100.0 %
     Test CRC DA84FCD2
     Copy CRC DA84FCD2
     Track not present in AccurateRip database
     Copy OK
Track  9
     Filename T:\EACtmp\09 - This Time.wav
     Peak level 98.8 %
     Extraction speed 7.9 X
     Track quality 100.0 %
     Test CRC A2DA3C47
     Copy CRC A2DA3C47
     Track not present in AccurateRip database
     Copy OK
Track 10
     Filename T:\EACtmp\10 - The Best Was Yet to Come.wav
     Peak level 98.8 %
     Extraction speed 5.9 X
     Track quality 99.9 %
     Test CRC DBA8E921
     Copy CRC DBA8E921
     Track not present in AccurateRip database
     Copy OK
Track 11
     Filename T:\EACtmp\11 - Heaven.wav
     Peak level 98.8 %
     Extraction speed 8.2 X
     Track quality 100.0 %
     Test CRC B43140AE
     Copy CRC B43140AE
     Track not present in AccurateRip database
     Copy OK
Track 12
     Filename T:\EACtmp\12 - Run To You.wav
     Peak level 98.8 %
     Extraction speed 8.6 X
     Track quality 100.0 %
     Test CRC CBC435AA
     Copy CRC CBC435AA
     Track not present in AccurateRip database
     Copy OK
Track 13
     Filename T:\EACtmp\13 - Somebody.wav
     Peak level 100.0 %
     Extraction speed 8.8 X
     Track quality 100.0 %
     Test CRC 01ECC394
     Copy CRC 01ECC394
     Track not present in AccurateRip database
     Copy OK
Track 14
     Filename T:\EACtmp\14 - Straight From the Heart.wav
     Peak level 98.8 %
     Extraction speed 8.8 X
     Track quality 100.0 %
     Test CRC 185D9CBA
     Copy CRC 185D9CBA
     Track not present in AccurateRip database
     Copy OK
Track 15
     Filename T:\EACtmp\15 - Summer of '69.wav
     Peak level 98.8 %
     Extraction speed 8.0 X
     Track quality 99.9 %
     Test CRC 284F10E0
     Copy CRC 284F10E0
     Track not present in AccurateRip database
     Copy OK
None of the tracks are present in the AccurateRip database
No errors occurred
End of status report
---- CUETools DB Plugin V2.1.3
[CTDB TOCID: g_4ZebBmxFk8.h3anwXIwDxd1Kg-] found, Submit result: already submitted
[b3e7b8d6] (5/5) Accurately ripped
==== Log checksum EE7EC4F8513E6CBAA1206667E22AC44FEB66272A9D0C4B481799E56D5E276B8B ====

Содержание индексной карты (.CUE) CD 1

REM GENRE Pop
REM DATE 2014
REM DISCID E20F0D11
REM COMMENT "ExactAudioCopy v1.0b3"
CATALOG 0602537830633
PERFORMER "Bryan Adams"
TITLE "Reckless"
FILE "01 - One Night Love Affair.wav" WAVE
  TRACK 01 AUDIO
    TITLE "One Night Love Affair"
    PERFORMER "Bryan Adams"
    ISRC USAM18490001
    INDEX 01 00:00:00
FILE "02 - She's Only Happy When She's Dancin'.wav" WAVE
  TRACK 02 AUDIO
    TITLE "She's Only Happy When She's Dancin' "
    PERFORMER "Bryan Adams"
    ISRC USAM18490002
    INDEX 01 00:00:00
FILE "03 - Run To You.wav" WAVE
  TRACK 03 AUDIO
    TITLE "Run To You "
    PERFORMER "Bryan Adams"
    ISRC USAM18490003
    INDEX 01 00:00:00
FILE "04 - Heaven.wav" WAVE
  TRACK 04 AUDIO
    TITLE "Heaven"
    PERFORMER "Bryan Adams"
    ISRC USAM18490004
    INDEX 01 00:00:00
FILE "05 - Somebody.wav" WAVE
  TRACK 05 AUDIO
    TITLE "Somebody "
    PERFORMER "Bryan Adams"
    ISRC USAM18490005
    INDEX 01 00:00:00
FILE "06 - Summer Of '69.wav" WAVE
  TRACK 06 AUDIO
    TITLE "Summer Of '69"
    PERFORMER "Bryan Adams"
    ISRC USAM18490006
    INDEX 01 00:00:00
FILE "07 - Kids Wanna Rock.wav" WAVE
  TRACK 07 AUDIO
    TITLE "Kids Wanna Rock "
    PERFORMER "Bryan Adams"
    ISRC USAM18490007
    INDEX 01 00:00:00
FILE "08 - It's Only Love.wav" WAVE
  TRACK 08 AUDIO
    TITLE "It's Only Love "
    PERFORMER "Bryan Adams with Tina Turner"
    ISRC USAM18490007
    INDEX 01 00:00:00
FILE "09 - Long Gone.wav" WAVE
  TRACK 09 AUDIO
    TITLE "Long Gone"
    PERFORMER "Bryan Adams"
    ISRC USAM18490009
    INDEX 01 00:00:00
FILE "10 - Ain't Gonna Cry.wav" WAVE
  TRACK 10 AUDIO
    TITLE "Ain't Gonna Cry"
    PERFORMER "Bryan Adams"
    ISRC USAM18490009
    INDEX 01 00:00:00
  TRACK 11 AUDIO
    TITLE "Let Me Down Easy"
    PERFORMER "Bryan Adams"
    ISRC USUM71411193
    INDEX 00 04:06:57
FILE "11 - Let Me Down Easy.wav" WAVE
    INDEX 01 00:00:00
  TRACK 12 AUDIO
    TITLE "Teacher, Teacher"
    PERFORMER "Bryan Adams"
    ISRC USUM71411187
    INDEX 00 03:38:30
FILE "12 - Teacher, Teacher.wav" WAVE
    INDEX 01 00:00:00
  TRACK 13 AUDIO
    TITLE "The Boys Night Out"
    PERFORMER "Bryan Adams"
    ISRC USUM71411188
    INDEX 00 03:45:60
FILE "13 - The Boys Night Out.wav" WAVE
    INDEX 01 00:00:00
  TRACK 14 AUDIO
    TITLE "Draw The Line"
    PERFORMER "Bryan Adams"
    ISRC USUM71411189
    INDEX 00 03:51:09
FILE "14 - Draw The Line.wav" WAVE
    INDEX 01 00:00:00
  TRACK 15 AUDIO
    TITLE "Play To Win"
    PERFORMER "Bryan Adams"
    ISRC USUM71411190
    INDEX 00 03:23:16
FILE "15 - Play To Win.wav" WAVE
    INDEX 01 00:00:00
  TRACK 16 AUDIO
    TITLE "Too Hot To Handle"
    PERFORMER "Bryan Adams"
    ISRC USUM71411191
    INDEX 00 03:26:12
FILE "16 - Too Hot To Handle.wav" WAVE
    INDEX 01 00:00:00
  TRACK 17 AUDIO
    TITLE "Reckless"
    PERFORMER "Bryan Adams"
    ISRC USUM71411192
    INDEX 00 03:58:68
FILE "17 - Reckless.wav" WAVE
    INDEX 01 00:00:00

Содержание индексной карты (.CUE) CD 2

REM GENRE Pop
REM DATE 2014
REM DISCID E20F570F
REM COMMENT "ExactAudioCopy v1.0b3"
CATALOG 0602537830558
PERFORMER "Bryan Adams"
TITLE "Reckless"
FILE "01 - Remember.wav" WAVE
  TRACK 01 AUDIO
    TITLE "Remember"
    PERFORMER "Bryan Adams"
    ISRC USUM71411566
    INDEX 01 00:00:00
FILE "02 - The Only One.wav" WAVE
  TRACK 02 AUDIO
    TITLE "The Only One"
    PERFORMER "Bryan Adams"
    ISRC USUM71411567
    INDEX 01 00:00:00
FILE "03 - It's Only Love.wav" WAVE
  TRACK 03 AUDIO
    TITLE "It's Only Love"
    PERFORMER "Bryan Adams"
    ISRC USUM71411567
    INDEX 01 00:00:00
FILE "04 - Kids Wanna Rock.wav" WAVE
  TRACK 04 AUDIO
    TITLE "Kids Wanna Rock"
    PERFORMER "Bryan Adams"
    ISRC USUM71411569
    INDEX 01 00:00:00
FILE "05 - Long Gone.wav" WAVE
  TRACK 05 AUDIO
    TITLE "Long Gone"
    PERFORMER "Bryan Adams"
    ISRC USUM71411570
    INDEX 01 00:00:00
FILE "06 - Cuts Like a Knife.wav" WAVE
  TRACK 06 AUDIO
    TITLE "Cuts Like a Knife"
    PERFORMER "Bryan Adams"
    ISRC USUM71411571
    INDEX 01 00:00:00
FILE "07 - Lonely Nights.wav" WAVE
  TRACK 07 AUDIO
    TITLE "Lonely Nights"
    PERFORMER "Bryan Adams"
    ISRC USUM71411572
    INDEX 01 00:00:00
FILE "08 - Tonight.wav" WAVE
  TRACK 08 AUDIO
    TITLE "Tonight"
    PERFORMER "Bryan Adams"
    ISRC USUM71411573
    INDEX 01 00:00:00
FILE "09 - This Time.wav" WAVE
  TRACK 09 AUDIO
    TITLE "This Time"
    PERFORMER "Bryan Adams"
    ISRC USUM71411574
    INDEX 01 00:00:00
FILE "10 - The Best Was Yet to Come.wav" WAVE
  TRACK 10 AUDIO
    TITLE "The Best Was Yet to Come"
    PERFORMER "Bryan Adams"
    ISRC USUM71411575
    INDEX 01 00:00:00
FILE "11 - Heaven.wav" WAVE
  TRACK 11 AUDIO
    TITLE "Heaven"
    PERFORMER "Bryan Adams"
    ISRC USUM71411576
    INDEX 01 00:00:00
FILE "12 - Run To You.wav" WAVE
  TRACK 12 AUDIO
    TITLE "Run To You"
    PERFORMER "Bryan Adams"
    ISRC USUM71411577
    INDEX 01 00:00:00
FILE "13 - Somebody.wav" WAVE
  TRACK 13 AUDIO
    TITLE "Somebody"
    PERFORMER "Bryan Adams"
    ISRC USUM71411578
    INDEX 01 00:00:00
FILE "14 - Straight From the Heart.wav" WAVE
  TRACK 14 AUDIO
    TITLE "Straight From the Heart"
    PERFORMER "Bryan Adams"
    ISRC USUM71411579
    INDEX 01 00:00:00
FILE "15 - Summer of '69.wav" WAVE
  TRACK 15 AUDIO
    TITLE "Summer of '69"
    PERFORMER "Bryan Adams"
    ISRC USUM71411579
    INDEX 01 00:00:00
[Профиль] [ЛС]
Кто просматривает тему:

Форум Тема Автор Размер
Rock (Rock)Bryan Adams - Tracks Of My Years (Deluxe edition) - 2014, FLAC (image+.cue), lossless sergej644 371 MB
Показать сообщения:    

Текущее время: Сегодня 09:57

Часовой пояс: GMT



Вы не можете начинать темы
Вы не можете отвечать на сообщения
Вы не можете редактировать свои сообщения
Вы не можете удалять свои сообщения
Вы не можете голосовать в опросах
Вы не можете прикреплять файлы к сообщениям
Вы не можете скачивать файлы