(Hard Rock)Boston - Greatest Hits - 1997 [Ape, image +.cue, lossless]

 
Автор Сообщение

sergej644 ®

Пол:

Стаж: 4 года 11 месяцев

Сообщений: 6043

Откуда: Soviet Union



Награды: Нет

Торрент-статистика

Создавать темы 26-Июл-2016 12:24

[Цитировать]

-Boston - Greatest Hits--
Год издания: 1997
Страна: USA
Жанр: Hard Rock
Продолжительность: 01:15:33-Лейбл издания: Epic Records
Страна-выпуска диска: USA
Номер по каталогу: 07464676222-Формат: Ape
Битрейт аудио: Lossless
Тип рипа: image +.cue
Наличие сканов в содержимом раздачи: да
-Boston — американская рок-группа. Наибольшую популярность получила в 70-е и 80-е года. За время существования выпустила 6 студийных альбомов. Одноимённый дебютный альбом разошёлся тиражом более 17 миллионов экземпляров.

Трэклист


01. Tell Me (4:05)
02. Higher Power (5:08)
03. More Than a Feeling (4:45)
04. Peace of Mind (5:05)
05. Don't Look Back (5:57)
06. Cool the Engines (4:36)
07. Livin' For You (4:57)
08. Feelin' Satisfied (4:11)
09. Party (4:08)
10. Foreplay; Long Time (7:49)
11. Amanda (4:16)
12. Rock & Roll Band (3:00)
13. Smokin' (4:22)
14. A Man I'll Never Be (6:32)
15. The Star Spangled Banner; 4th of July Reprise (2:45)
16. Higher Power (Kalodner Edit) (3:53)
-

Лог создания рипа

Exact Audio Copy V0.99 prebeta 4 from 23. January 2008
EAC extraction logfile from 28. July 2009, 20:03
Boston / Greatest Hits
Used drive  : ASUS DRW-20B1ST   Adapter: 1  ID: 0
Read mode               : Secure
Utilize accurate stream : Yes
Defeat audio cache      : Yes
Make use of C2 pointers : No
Read offset correction                      : 102
Overread into Lead-In and Lead-Out          : No
Fill up missing offset samples with silence : Yes
Delete leading and trailing silent blocks   : No
Null samples used in CRC calculations       : Yes
Used interface                              : Installed external ASPI interface
Used output format : Internal WAV Routines
Sample format      : 44.100 Hz; 16 Bit; Stereo
TOC of the extracted CD
     Track |   Start  |  Length  | Start sector | End sector
    ---------------------------------------------------------
        1  |  0:00.00 |  4:04.65 |         0    |    18364
        2  |  4:04.65 |  5:08.07 |     18365    |    41471
        3  |  9:12.72 |  4:45.10 |     41472    |    62856
        4  | 13:58.07 |  5:05.18 |     62857    |    85749
        5  | 19:03.25 |  5:57.25 |     85750    |   112549
        6  | 25:00.50 |  4:35.47 |    112550    |   133221
        7  | 29:36.22 |  4:57.00 |    133222    |   155496
        8  | 34:33.22 |  4:11.28 |    155497    |   174349
        9  | 38:44.50 |  4:08.10 |    174350    |   192959
       10  | 42:52.60 |  7:48.45 |    192960    |   228104
       11  | 50:41.30 |  4:15.67 |    228105    |   247296
       12  | 54:57.22 |  3:00.35 |    247297    |   260831
       13  | 57:57.57 |  4:21.60 |    260832    |   280466
       14  | 62:19.42 |  6:32.33 |    280467    |   309899
       15  | 68:52.00 |  2:45.02 |    309900    |   322276
       16  | 71:37.02 |  3:52.63 |    322277    |   339739
Range status and errors
Selected range
     Filename C:\Music\OUT Record\Boston\B-GH\Boston - Greatest Hits.wav
     Peak level 100.0 %
     Range quality 100.0 %
     Copy CRC B16ACCF5
     Copy OK
No errors occurred
AccurateRip summary
Track  1  not present in database
Track  2  not present in database
Track  3  not present in database
Track  4  not present in database
Track  5  not present in database
Track  6  not present in database
Track  7  not present in database
Track  8  not present in database
Track  9  not present in database
Track 10  not present in database
Track 11  not present in database
Track 12  not present in database
Track 13  not present in database
Track 14  not present in database
Track 15  not present in database
Track 16  not present in database
None of the tracks are present in the AccurateRip database
End of status report

Индексная карта (non-compilant .cue)

REM GENRE Rock
REM DATE 1997
REM DISCID EA11B110
REM COMMENT "ExactAudioCopy v0.99pb4"
PERFORMER "Boston"
TITLE "Greatest Hits"
FILE "Boston - Greatest Hits.ape" WAVE
  TRACK 01 AUDIO
    TITLE "Tell Me"
    PERFORMER "Boston"
    INDEX 01 00:00:00
  TRACK 02 AUDIO
    TITLE "Higher Power"
    PERFORMER "Boston"
    INDEX 01 04:04:65
  TRACK 03 AUDIO
    TITLE "More Than a Feeling"
    PERFORMER "Boston"
    INDEX 00 09:09:37
    INDEX 01 09:12:72
  TRACK 04 AUDIO
    TITLE "Peace of Mind"
    PERFORMER "Boston"
    INDEX 01 13:58:07
  TRACK 05 AUDIO
    TITLE "Don't Look Back"
    PERFORMER "Boston"
    INDEX 00 19:01:32
    INDEX 01 19:03:25
  TRACK 06 AUDIO
    TITLE "Cool the Engines"
    PERFORMER "Boston"
    INDEX 01 25:00:50
  TRACK 07 AUDIO
    TITLE "Livin' For You"
    PERFORMER "Boston"
    INDEX 01 29:36:22
  TRACK 08 AUDIO
    TITLE "Feelin' Satisfied"
    PERFORMER "Boston"
    INDEX 00 34:31:60
    INDEX 01 34:33:22
  TRACK 09 AUDIO
    TITLE "Party"
    PERFORMER "Boston"
    INDEX 01 38:44:50
  TRACK 10 AUDIO
    TITLE "Foreplay; Long Time"
    PERFORMER "Boston"
    INDEX 00 42:52:37
    INDEX 01 42:52:60
  TRACK 11 AUDIO
    TITLE "Amanda"
    PERFORMER "Boston"
    INDEX 00 50:41:22
    INDEX 01 50:41:30
  TRACK 12 AUDIO
    TITLE "Rock & Roll Band"
    PERFORMER "Boston"
    INDEX 00 54:57:20
    INDEX 01 54:57:22
  TRACK 13 AUDIO
    TITLE "Smokin'"
    PERFORMER "Boston"
    INDEX 00 57:57:30
    INDEX 01 57:57:57
  TRACK 14 AUDIO
    TITLE "A Man I'll Never Be"
    PERFORMER "Boston"
    INDEX 00 62:17:62
    INDEX 01 62:19:42
  TRACK 15 AUDIO
    TITLE "The Star Spangled Banner; 4th of July Reprise"
    PERFORMER "Boston"
    INDEX 01 68:52:00
  TRACK 16 AUDIO
    TITLE "Higher Power (Kalodner Edit)"
    PERFORMER "Boston"
    INDEX 00 71:34:30
    INDEX 01 71:37:02
--
[Профиль] [ЛС]
Показать сообщения:    

Текущее время: Сегодня 20:29

Часовой пояс: GMT



Вы не можете начинать темы
Вы не можете отвечать на сообщения
Вы не можете редактировать свои сообщения
Вы не можете удалять свои сообщения
Вы не можете голосовать в опросах
Вы не можете прикреплять файлы к сообщениям
Вы не можете скачивать файлы