Boris Zhivago - The Last Goodbye (2013) [FLAC (image+.cue)|Lossless]<Italo-Disco>

 
Автор Сообщение

sergej644 ®

Пол:

Стаж: 4 года 11 месяцев

Сообщений: 6038

Откуда: Soviet Union



Награды: Нет

Торрент-статистика

Создавать темы 24-Дек-2014 22:56

[Цитировать]

-Boris Zhivago - The Last Goodbye (2013)- Год: 2013
Жанр: Italo-Disco
Продолжительность: 01:18:22
Лейбл: SP records
Номер по каталогу: SP 0012
Кодек: FLAC
Тип рипа: image+.cue
Битрейт: Lossless
Источник: Собственный рип
Треклист:
01. Another Life
02. Rainy Day
03. In A World Of Fantasy
04. In The Streets Of Moscow
05. No More Love
06. Twenty Years Ago
07. One Day
08. Do You Really Love Me
09 Mona Lisa
10. The Last Goodbye
11. In A Land Of No Illusions

Отчёт ЕАС&#58;

Exact Audio Copy V0.99 prebeta 4 from 23. January 2008
Отчёт EAC об извлечении, выполненном 16. июня 2014, 9:39
Boris Zhivago / The Last Goodbye
Дисковод: TSSTcorpCDDVDW SU-228CB   Adapter: 3  ID: 0
Режим чтения                 : Достоверность
Использование точного потока : Да
Отключение кэша аудио        : Да
Использование указателей C2  : Нет
Коррекция смещения при чтении                     : 6
Способность читать области Lead-in и Lead-out     : Нет
Заполнение пропущенных сэмплов тишиной            : Да
Удаление блоков с тишиной в начале и конце        : Нет
При вычислениях CRC использовались нулевые сэмплы : Да
Интерфейс                                         : Встроенный Win32-интерфейс для Win NT/2000
Выходной формат          : Пользовательский кодировщик
Выбранный битрейт        : 768 kBit/s
Качество                 : Высокий
Добавление ID3-тэга      : Нет
Утилита сжатия           : C:\Program Files (x86)\Exact Audio Copy\FLAC\FLAC.EXE
Дополнительные параметры : -6 -V -T "ARTIST=%a" -T "TITLE=%t" -T "ALBUM=%g" -T "DATE=%y" -T "TRACKNUMBER=%n" -T "GENRE=%m" -T "COMMENT=%e" %s -o %d
TOC извлечённого CD
     Трек |   Старт  | Длительность | Начальный сектор | Конечный сектор
    ---------------------------------------------------------------------
       1  |  0:00.00 |    7:22.03   |           0      |      33152
       2  |  7:22.03 |    6:28.38   |       33153      |      62290
       3  | 13:50.41 |    8:58.71   |       62291      |     102711
       4  | 22:49.37 |    6:42.59   |      102712      |     132920
       5  | 29:32.21 |    6:28.23   |      132921      |     162043
       6  | 36:00.44 |    6:26.04   |      162044      |     190997
       7  | 42:26.48 |    9:04.41   |      190998      |     231838
       8  | 51:31.14 |    6:01.03   |      231839      |     258916
       9  | 57:32.17 |    7:57.15   |      258917      |     294706
      10  | 65:29.32 |    6:13.27   |      294707      |     322708
      11  | 71:42.59 |    6:39.73   |      322709      |     352706
Характеристики диапазона извлечения и сообщения об ошибках
Выбранный диапазон
     Имя файла C:\Users\ASUS\Music\Boris Zhivago - The Last Goodbye.wav
     Пиковый уровень 98.8 %
     Качество диапазона 100.0 %
     CRC теста 347375DA
     CRC копии 347375DA
     Копирование... OK
Ошибок не произошло
AccurateRip: сводка
Трек  1  нет в базе данных
Трек  2  нет в базе данных
Трек  3  нет в базе данных
Трек  4  нет в базе данных
Трек  5  нет в базе данных
Трек  6  нет в базе данных
Трек  7  нет в базе данных
Трек  8  нет в базе данных
Трек  9  нет в базе данных
Трек 10  нет в базе данных
Трек 11  нет в базе данных
Ни одного трека нет в базе AccurateRip
Конец отчёта

.cue

REM GENRE "Nu Disco"
REM DATE 2013
REM DISCID 92125E0B
REM COMMENT "ExactAudioCopy v0.99pb4"
PERFORMER "Boris Zhivago"
TITLE "The Last Goodbye"
FILE "Boris Zhivago - The Last Goodbye.flac" WAVE
  TRACK 01 AUDIO
    TITLE "Another Life"
    PERFORMER "Boris Zhivago"
    INDEX 01 00:00:00
  TRACK 02 AUDIO
    TITLE "Rainy Day"
    PERFORMER "Boris Zhivago"
    INDEX 00 07:20:03
    INDEX 01 07:22:03
  TRACK 03 AUDIO
    TITLE "In A World Of Fantasy"
    PERFORMER "Boris Zhivago"
    INDEX 00 13:48:41
    INDEX 01 13:50:41
  TRACK 04 AUDIO
    TITLE "In The Streets Of Moscow"
    PERFORMER "Boris Zhivago"
    INDEX 00 22:47:37
    INDEX 01 22:49:37
  TRACK 05 AUDIO
    TITLE "No More Love"
    PERFORMER "Boris Zhivago"
    INDEX 00 29:30:21
    INDEX 01 29:32:21
  TRACK 06 AUDIO
    TITLE "Twenty Years Ago"
    PERFORMER "Boris Zhivago"
    INDEX 00 35:58:44
    INDEX 01 36:00:44
  TRACK 07 AUDIO
    TITLE "One Day"
    PERFORMER "Boris Zhivago"
    INDEX 00 42:24:48
    INDEX 01 42:26:48
  TRACK 08 AUDIO
    TITLE "Do You Really Love Me"
    PERFORMER "Boris Zhivago"
    INDEX 00 51:29:14
    INDEX 01 51:31:14
  TRACK 09 AUDIO
    TITLE "Mona Lisa"
    PERFORMER "Boris Zhivago"
    INDEX 00 57:30:17
    INDEX 01 57:32:17
  TRACK 10 AUDIO
    TITLE "The Last Goodbye"
    PERFORMER "Boris Zhivago"
    INDEX 00 65:27:32
    INDEX 01 65:29:32
  TRACK 11 AUDIO
    TITLE "In A Land Of No Illusions"
    PERFORMER "Boris Zhivago"
    INDEX 00 71:40:59
    INDEX 01 71:42:59

Отчёт auCDtect Task manager&#58;

-----------------------
DON'T MODIFY THIS FILE
-----------------------
PERFORMER: auCDtect Task Manager, ver. 1.5.1RC6 build 1.5.1.7
Copyright (c) 2008-2010 y-soft. All rights reserved
http://y-soft.org
ANALYZER: auCDtect: CD records authenticity detector, version 0.8.2
Copyright (c) 2004 Oleg Berngardt. All rights reserved.
Copyright (c) 2004 Alexander Djourik. All rights reserved.
FILE: Boris Zhivago - The Last Goodbye.flac
  Size: 598355784 Hash: C09DCC4BB12D5A4BB5E09EEAE6809483 Accuracy: -m0
  Conclusion: CDDA 100%
  Signature: 56C8C19637ED6AA163ED8D69B824B49FB313160D

Спектрограмма&#58;

[Профиль] [ЛС]

Создавать темы 13-Авг-2015 10:41 (спустя 7 месяцев 20 дней)

Топик был перенесен из форума Зарубежная в форум Technopop, Eurodance, Disco
sergej644
 
Показать сообщения:    

Текущее время: Сегодня 00:05

Часовой пояс: GMT



Вы не можете начинать темы
Вы не можете отвечать на сообщения
Вы не можете редактировать свои сообщения
Вы не можете удалять свои сообщения
Вы не можете голосовать в опросах
Вы не можете прикреплять файлы к сообщениям
Вы не можете скачивать файлы