(Hard Rock) Bonfire - 29 Golden Bullets (The Very Best)(2CD) - 2001, FLAC (image+*cue), lossless

 
Автор Сообщение

sergej644 ®

Пол:

Стаж: 4 года 11 месяцев

Сообщений: 6046

Откуда: Soviet Union



Награды: Нет

Торрент-статистика

Создавать темы 04-Сен-2014 21:34

[Цитировать]

--Bonfire - 29 Golden Bullets (The Very Best)(2CD)
Страна: Germany
Жанр: Hard Rock
Год выпуска: 2001
Формат: FLAC
Label: BMG – 74321 89346 2
Format: 2CD, Album, Compilation
Тип рипа: (image+*cue)
Битрейт аудио: lossless
Продолжительность: 01:56:45

CD 1 | 00:57:47

01. Sweet Home Alabama (04:08)
02. American Nights (03:31)
03. Damn You (04:20)
04. The Stroke (04:22)
05. Strike Back (04:52)
06. Who's Foolin' Who (03:32)
07. Goodnight Amanda (03:49)
08. SDI (03:36)
09. Heat In The Glow (03:33)
10. Back To You (03:45)
11. Ready 4 Reaction (03:41)
12. Wild Dixie (02:57)
13. I Need You (03:35)
14. Because It's X-Mas Time (03:59)
15. Take Me By The Hand (04:00)

лог создания рипа

Exact Audio Copy V0.99 prebeta 5 from 4. May 2009
EAC extraction logfile from 28. November 2010, 16:36
Bonfire / 29 Golden Bullets
Used drive  : PIONEER DVD-RW  DVR-215D   Adapter: 3  ID: 0
Read mode               : Secure
Utilize accurate stream : Yes
Defeat audio cache      : Yes
Make use of C2 pointers : No
Read offset correction                      : 48
Overread into Lead-In and Lead-Out          : No
Fill up missing offset samples with silence : Yes
Delete leading and trailing silent blocks   : No
Null samples used in CRC calculations       : Yes
Used interface                              : Native Win32 interface for Win NT & 2000
Used output format              : User Defined Encoder
Selected bitrate                : 768 kBit/s
Quality                         : High
Add ID3 tag                     : No
Command line compressor         : C:\Program Files\Exact Audio Copy\FLAC\FLAC.EXE
Additional command line options : -8 -V %s
TOC of the extracted CD
     Track |   Start  |  Length  | Start sector | End sector
    ---------------------------------------------------------
        1  |  0:00.00 |  3:07.53 |         0    |    14077
        2  |  3:07.53 |  5:08.65 |     14078    |    37242
        3  |  8:16.43 |  3:52.34 |     37243    |    54676
        4  | 12:09.02 |  3:08.17 |     54677    |    68793
        5  | 15:17.19 |  4:47.25 |     68794    |    90343
        6  | 20:04.44 |  4:05.58 |     90344    |   108776
        7  | 24:10.27 |  4:39.13 |    108777    |   129714
        8  | 28:49.40 |  4:30.03 |    129715    |   149967
        9  | 33:19.43 |  4:42.62 |    149968    |   171179
       10  | 38:02.30 |  3:56.09 |    171180    |   188888
       11  | 41:58.39 |  4:02.50 |    188889    |   207088
       12  | 46:01.14 |  3:41.08 |    207089    |   223671
       13  | 49:42.22 |  4:38.66 |    223672    |   244587
       14  | 54:21.13 |  5:02.33 |    244588    |   267270
Range status and errors
Selected range
     Filename C:\lossless\my Rips\Bonfire\29 Golden Bullets - The Very Best 2001\Bonfire - 29 Golden Bullets.wav
     Peak level 98.8 %
     Range quality 100.0 %
     Test CRC E5ECAAF8
     Copy CRC E5ECAAF8
     Copy OK
No errors occurred
AccurateRip summary
Track  1  accurately ripped (confidence 5)  [6753E966]
Track  2  accurately ripped (confidence 5)  [54EBC640]
Track  3  accurately ripped (confidence 5)  [4E3C85C1]
Track  4  accurately ripped (confidence 5)  [58066E3D]
Track  5  accurately ripped (confidence 5)  [B55DAA28]
Track  6  accurately ripped (confidence 5)  [749F3E24]
Track  7  accurately ripped (confidence 5)  [38882241]
Track  8  accurately ripped (confidence 5)  [B8FFDB1F]
Track  9  accurately ripped (confidence 5)  [31EE98AC]
Track 10  accurately ripped (confidence 5)  [7723EEB1]
Track 11  accurately ripped (confidence 5)  [F4C76308]
Track 12  accurately ripped (confidence 5)  [C4DF5A29]
Track 13  accurately ripped (confidence 5)  [B1CE3F2A]
Track 14  accurately ripped (confidence 5)  [D7AF76B4]
All tracks accurately ripped
End of status report

содержание индексной карты *cue

REM GENRE "Hard Rock"
REM DATE 2001
REM DISCID BB0DEB0E
REM COMMENT "ExactAudioCopy v0.99pb5"
PERFORMER "Bonfire"
TITLE "29 Golden Bullets"
FILE "Bonfire - 29 Golden Bullets.flac" WAVE
  TRACK 01 AUDIO
    TITLE "Sweet Obsession"
    PERFORMER "Bonfire"
    INDEX 01 00:00:00
  TRACK 02 AUDIO
    TITLE "Under Blue Skies"
    PERFORMER "Bonfire"
    INDEX 00 03:05:53
    INDEX 01 03:07:53
  TRACK 03 AUDIO
    TITLE "Daytona Nights"
    PERFORMER "Bonfire"
    INDEX 00 08:14:43
    INDEX 01 08:16:43
  TRACK 04 AUDIO
    TITLE "Hard On Me"
    PERFORMER "Bonfire"
    INDEX 00 12:07:02
    INDEX 01 12:09:02
  TRACK 05 AUDIO
    TITLE "Proud Of My Country"
    PERFORMER "Bonfire"
    INDEX 00 15:15:19
    INDEX 01 15:17:19
  TRACK 06 AUDIO
    TITLE "Until The Last Goodbye"
    PERFORMER "Bonfire"
    INDEX 00 20:02:44
    INDEX 01 20:04:44
  TRACK 07 AUDIO
    TITLE "Too Much Hollywood"
    PERFORMER "Bonfire"
    INDEX 00 24:08:27
    INDEX 01 24:10:27
  TRACK 08 AUDIO
    TITLE "Give It A Try"
    PERFORMER "Bonfire"
    INDEX 00 28:47:40
    INDEX 01 28:49:40
  TRACK 09 AUDIO
    TITLE "You Make Me Feel"
    PERFORMER "Bonfire"
    INDEX 00 33:17:43
    INDEX 01 33:19:43
  TRACK 10 AUDIO
    TITLE "Sword And Stone"
    PERFORMER "Bonfire"
    INDEX 00 38:00:30
    INDEX 01 38:02:30
  TRACK 11 AUDIO
    TITLE "Down To Atlanta"
    PERFORMER "Bonfire"
    INDEX 00 41:56:39
    INDEX 01 41:58:39
  TRACK 12 AUDIO
    TITLE "Sleeping All Alone (Thomson Barbeo Mix)"
    PERFORMER "Bonfire"
    INDEX 00 45:59:14
    INDEX 01 46:01:14
  TRACK 13 AUDIO
    TITLE "Tony's Roulette"
    PERFORMER "Bonfire"
    INDEX 00 49:40:22
    INDEX 01 49:42:22
  TRACK 14 AUDIO
    TITLE "Rock 'N' Roll Cowboy (German Version)"
    PERFORMER "Bonfire"
    INDEX 00 54:19:13
    INDEX 01 54:21:13

CD 2 | 00:58:58

01. Sweet Obsession (03:05)
02. Under Blue Skies (05:06)
03. Daytona Nights (03:50)
04. Hard On Me (03:06)
05. Proud Of My Country (04:45)
06. Until The Last Goodbye (04:03)
07. Too Much Hollywood (04:37)
08. Give It A Try (04:28)
09. You Make Me Feel (04:40)
10. Sword And Stone (03:54)
11. Down To Atlanta (04:00)
12. Sleeping All Alone (Thomson Barbeo Mix) (03:39)
13. Tony's Roulette (04:36)
14. Rock 'N' Roll Cowboy (German Version) (05:02)

лог создания рипа

Exact Audio Copy V0.99 prebeta 5 from 4. May 2009
EAC extraction logfile from 28. November 2010, 16:56
Bonfire / 29 Golden Bullets CD 2
Used drive  : PIONEER DVD-RW  DVR-215D   Adapter: 3  ID: 0
Read mode               : Secure
Utilize accurate stream : Yes
Defeat audio cache      : Yes
Make use of C2 pointers : No
Read offset correction                      : 48
Overread into Lead-In and Lead-Out          : No
Fill up missing offset samples with silence : Yes
Delete leading and trailing silent blocks   : No
Null samples used in CRC calculations       : Yes
Used interface                              : Native Win32 interface for Win NT & 2000
Used output format              : User Defined Encoder
Selected bitrate                : 768 kBit/s
Quality                         : High
Add ID3 tag                     : No
Command line compressor         : C:\Program Files\Exact Audio Copy\FLAC\FLAC.EXE
Additional command line options : -8 -V %s
TOC of the extracted CD
     Track |   Start  |  Length  | Start sector | End sector
    ---------------------------------------------------------
        1  |  0:00.00 |  4:10.36 |         0    |    18785
        2  |  4:10.36 |  3:33.09 |     18786    |    34769
        3  |  7:43.45 |  4:22.06 |     34770    |    54425
        4  | 12:05.51 |  4:24.41 |     54426    |    74266
        5  | 16:30.17 |  4:54.59 |     74267    |    96375
        6  | 21:25.01 |  3:34.58 |     96376    |   112483
        7  | 24:59.59 |  3:51.60 |    112484    |   129868
        8  | 28:51.44 |  3:38.30 |    129869    |   146248
        9  | 32:29.74 |  3:35.53 |    146249    |   162426
       10  | 36:05.52 |  3:47.10 |    162427    |   179461
       11  | 39:52.62 |  3:43.44 |    179462    |   196230
       12  | 43:36.31 |  2:58.70 |    196231    |   209650
       13  | 46:35.26 |  3:36.73 |    209651    |   225923
       14  | 50:12.24 |  4:01.10 |    225924    |   244008
       15  | 54:13.34 |  4:00.35 |    244009    |   262043
Range status and errors
Selected range
     Filename C:\lossless\my Rips\Bonfire\29 Golden Bullets - The Very Best 2001\Bonfire - 29 Golden Bullets CD 2.wav
     Peak level 98.8 %
     Range quality 100.0 %
     Test CRC 5A3C1252
     Copy CRC 5A3C1252
     Copy OK
No errors occurred
AccurateRip summary
Track  1  accurately ripped (confidence 6)  [7044A50B]
Track  2  accurately ripped (confidence 5)  [F9E5898B]
Track  3  accurately ripped (confidence 5)  [39768CD4]
Track  4  accurately ripped (confidence 5)  [F00B0277]
Track  5  accurately ripped (confidence 5)  [24FA88C0]
Track  6  accurately ripped (confidence 5)  [D083FEEA]
Track  7  accurately ripped (confidence 5)  [D87D3495]
Track  8  accurately ripped (confidence 5)  [15DB8001]
Track  9  accurately ripped (confidence 5)  [D957DAF8]
Track 10  accurately ripped (confidence 5)  [119A159C]
Track 11  accurately ripped (confidence 5)  [671A2606]
Track 12  accurately ripped (confidence 5)  [76702F7D]
Track 13  accurately ripped (confidence 5)  [499E3147]
Track 14  accurately ripped (confidence 5)  [0B5BC2CB]
Track 15  accurately ripped (confidence 5)  [1E15957F]
All tracks accurately ripped
End of status report

содержание индексной карты *cue

REM GENRE "Hard Rock"
REM DATE 2001
REM DISCID D80DA50F
REM COMMENT "ExactAudioCopy v0.99pb5"
PERFORMER "Bonfire"
TITLE "29 Golden Bullets CD 2"
FILE "Bonfire - 29 Golden Bullets CD 2.flac" WAVE
  TRACK 01 AUDIO
    TITLE "Sweet Home Alabama"
    PERFORMER "Bonfire"
    INDEX 01 00:00:00
  TRACK 02 AUDIO
    TITLE "American Nights"
    PERFORMER "Bonfire"
    INDEX 00 04:08:36
    INDEX 01 04:10:36
  TRACK 03 AUDIO
    TITLE "Damn You"
    PERFORMER "Bonfire"
    INDEX 00 07:41:45
    INDEX 01 07:43:45
  TRACK 04 AUDIO
    TITLE "The Stroke"
    PERFORMER "Bonfire"
    INDEX 00 12:03:51
    INDEX 01 12:05:51
  TRACK 05 AUDIO
    TITLE "Strike Back"
    PERFORMER "Bonfire"
    INDEX 00 16:28:17
    INDEX 01 16:30:17
  TRACK 06 AUDIO
    TITLE "Who's Foolin' Who"
    PERFORMER "Bonfire"
    INDEX 00 21:23:01
    INDEX 01 21:25:01
  TRACK 07 AUDIO
    TITLE "Goodnight Amanda"
    PERFORMER "Bonfire"
    INDEX 00 24:57:59
    INDEX 01 24:59:59
  TRACK 08 AUDIO
    TITLE "SDI"
    PERFORMER "Bonfire"
    INDEX 00 28:49:44
    INDEX 01 28:51:44
  TRACK 09 AUDIO
    TITLE "Heat In The Glow"
    PERFORMER "Bonfire"
    INDEX 00 32:27:74
    INDEX 01 32:29:74
  TRACK 10 AUDIO
    TITLE "Back To You"
    PERFORMER "Bonfire"
    INDEX 00 36:03:52
    INDEX 01 36:05:52
  TRACK 11 AUDIO
    TITLE "Ready 4 Reaction"
    PERFORMER "Bonfire"
    INDEX 00 39:50:62
    INDEX 01 39:52:62
  TRACK 12 AUDIO
    TITLE "Wild Dixie"
    PERFORMER "Bonfire"
    INDEX 00 43:34:31
    INDEX 01 43:36:31
  TRACK 13 AUDIO
    TITLE "I Need You"
    PERFORMER "Bonfire"
    INDEX 00 46:33:26
    INDEX 01 46:35:26
  TRACK 14 AUDIO
    TITLE "Because It's X-Mas Time"
    PERFORMER "Bonfire"
    INDEX 00 50:10:24
    INDEX 01 50:12:24
  TRACK 15 AUDIO
    TITLE "Take Me By The Hand"
    PERFORMER "Bonfire"
    INDEX 00 54:11:34
    INDEX 01 54:13:34
[Профиль] [ЛС]
Показать сообщения:    

Текущее время: Сегодня 15:43

Часовой пояс: GMT



Вы не можете начинать темы
Вы не можете отвечать на сообщения
Вы не можете редактировать свои сообщения
Вы не можете удалять свои сообщения
Вы не можете голосовать в опросах
Вы не можете прикреплять файлы к сообщениям
Вы не можете скачивать файлы