(Disco) Boney M - The Complete Original Recordings - 1976-1985 (8CD)[APE, image+.cue, lossless]

 
Автор Сообщение

sergej644 ®

Пол:

Стаж: 4 года 11 месяцев

Сообщений: 6043

Откуда: Soviet Union



Награды: Нет

Торрент-статистика

Создавать темы 03-Янв-2016 12:42

[Цитировать]

-Boney M / The Complete Original Recordings-- Год издания: 1976-1985
Страна: Germany
Жанр: Disco
Продолжительность: 06:20:28-Лейбл издания: MCI, BMG Ariola
Страна-выпуска диска: Germany
Формат: APE
Битрейт аудио: lossless
Тип рипа: image+.cue
Наличие сканов в содержимом раздачи: да
-

Трэклист

1976 - Take The Heat Off Me || 00:36:10

01.Daddy Cool (03:30)
02.Take The Heat Off Me (04:48)
03.Sunny (04:04)
04.Baby Do You Wanna Bump (06:54)
05.No Woman No Cry (05:00)
06.Fever (04:01)
07.Got A Man On My Mind (03:26)
08.Lovin' Or Leavin' (04:30)

лог создания рипа

Exact Audio Copy V0.99 prebeta 5 from 4. May 2009
Отчёт EAC об извлечении, выполненном 9. июня 2009, 13:49
Boney M. / Take The Heat Off Me
Дисковод: HL-DT-STDVDRAM GH20NS10   Adapter: 0  ID: 0
Режим чтения                 : Достоверность
Использование точного потока : Да
Отключение кэша аудио        : Да
Использование указателей C2  : Нет
Коррекция смещения при чтении                     : 667
Способность читать области Lead-in и Lead-out     : Нет
Заполнение пропущенных сэмплов тишиной            : Да
Удаление блоков с тишиной в начале и конце        : Нет
При вычислениях CRC использовались нулевые сэмплы : Да
Интерфейс                                         : Установленный внешний ASPI-интерфейс
Выходной формат : Внутренние WAV-операции
Формат сэмплов  : 44.100 Гц; 16 бит; стерео
TOC извлечённого CD
     Трек |   Старт  | Длительность | Начальный сектор | Конечный сектор
    ---------------------------------------------------------------------
       1  |  0:00.32 |    3:29.18   |          32      |      15724
       2  |  3:29.50 |    4:47.47   |       15725      |      37296
       3  |  8:17.22 |    4:03.53   |       37297      |      55574
       4  | 12:21.00 |    6:53.57   |       55575      |      86606
       5  | 19:14.57 |    4:59.35   |       86607      |     109066
       6  | 24:14.17 |    4:00.73   |      109067      |     127139
       7  | 28:15.15 |    3:25.20   |      127140      |     142534
       8  | 31:40.35 |    4:29.72   |      142535      |     162781
Характеристики диапазона извлечения и сообщения об ошибках
Выбранный диапазон
     Имя файла K:\Boney M - Discography\1976 - Take The Heat Off Me\Boney M. - Take The Heat Off Me.wav
     Пиковый уровень 99.0 %
     Качество диапазона 100.0 %
     CRC копии 9AA6FA8F
     Копирование... OK
Ошибок не произошло
AccurateRip: сводка
Трек  1  точное извлечение (доверие 3)  [1D42975A]
Трек  2  точное извлечение (доверие 3)  [A934FC26]
Трек  3  точное извлечение (доверие 3)  [BEEE2117]
Трек  4  точное извлечение (доверие 2)  [744F6B85]
Трек  5  точное извлечение (доверие 3)  [28EF9110]
Трек  6  точное извлечение (доверие 2)  [CBFBF488]
Трек  7  точное извлечение (доверие 2)  [3B3964CD]
Трек  8  точное извлечение (доверие 3)  [5A7CB907]
Все треки извлечены точно
Конец отчёта

содержание индексной карты *cue

REM GENRE Disco
REM DATE 1976
REM DISCID 6A087A08
REM COMMENT "ExactAudioCopy v0.99pb5"
PERFORMER "Boney M."
TITLE "Take The Heat Off Me"
FILE "Boney M. - Take The Heat Off Me.ape" WAVE
  TRACK 01 AUDIO
    TITLE "Daddy  Cool"
    PERFORMER "Boney M."
    INDEX 00 00:00:00
    INDEX 01 00:00:32
  TRACK 02 AUDIO
    TITLE "Take The Heat Off Me"
    PERFORMER "Boney M."
    INDEX 00 03:28:70
    INDEX 01 03:29:50
  TRACK 03 AUDIO
    TITLE "Sunny"
    PERFORMER "Boney M."
    INDEX 00 08:16:32
    INDEX 01 08:17:22
  TRACK 04 AUDIO
    TITLE "Baby Do You Wanna Bump"
    PERFORMER "Boney M."
    INDEX 00 12:18:52
    INDEX 01 12:21:00
  TRACK 05 AUDIO
    TITLE "No Woman No Cry"
    PERFORMER "Boney M."
    INDEX 00 19:13:22
    INDEX 01 19:14:57
  TRACK 06 AUDIO
    TITLE "Fever"
    PERFORMER "Boney M."
    INDEX 00 24:13:37
    INDEX 01 24:14:17
  TRACK 07 AUDIO
    TITLE "Got A Man On My Mind"
    PERFORMER "Boney M."
    INDEX 00 28:13:55
    INDEX 01 28:15:15
  TRACK 08 AUDIO
    TITLE "Lovin' Or Leavin'"
    PERFORMER "Boney M."
    INDEX 00 31:38:10
    INDEX 01 31:40:35

1977 - Love For Sale || 00:41:21

01.Ma Baker (04:37)
02.Love For Sale (04:48)
03.Belfast (03:32)
04.Have You Ever Seen The Rain (02:41)
05.Gloria, Can You Waddle (03:58)
06.Plantation Boy (04:28)
07.Motherless Child (04:59)
08.Silent Lover (04:15)
09.A Woman Can Change A Man (03:34)
10.Still I'm Sad (04:35)

лог создания рипа

Exact Audio Copy V0.99 prebeta 5 from 4. May 2009
Отчёт EAC об извлечении, выполненном 9. июня 2009, 13:59
Boney M. / Love For Sale
Дисковод: HL-DT-STDVDRAM GH20NS10   Adapter: 0  ID: 0
Режим чтения                 : Достоверность
Использование точного потока : Да
Отключение кэша аудио        : Да
Использование указателей C2  : Нет
Коррекция смещения при чтении                     : 667
Способность читать области Lead-in и Lead-out     : Нет
Заполнение пропущенных сэмплов тишиной            : Да
Удаление блоков с тишиной в начале и конце        : Нет
При вычислениях CRC использовались нулевые сэмплы : Да
Интерфейс                                         : Установленный внешний ASPI-интерфейс
Выходной формат : Внутренние WAV-операции
Формат сэмплов  : 44.100 Гц; 16 бит; стерео
TOC извлечённого CD
     Трек |   Старт  | Длительность | Начальный сектор | Конечный сектор
    ---------------------------------------------------------------------
       1  |  0:00.32 |    4:36.58   |          32      |      20789
       2  |  4:37.15 |    4:47.15   |       20790      |      42329
       3  |  9:24.30 |    3:31.02   |       42330      |      58156
       4  | 12:55.32 |    2:40.23   |       58157      |      70179
       5  | 15:35.55 |    3:57.52   |       70180      |      88006
       6  | 19:33.32 |    4:27.10   |       88007      |     108041
       7  | 24:00.42 |    4:58.43   |      108042      |     130434
       8  | 28:59.10 |    4:14.17   |      130435      |     149501
       9  | 33:13.27 |    3:33.18   |      149502      |     165494
      10  | 36:46.45 |    4:34.62   |      165495      |     186106
Характеристики диапазона извлечения и сообщения об ошибках
Выбранный диапазон
     Имя файла K:\Boney M - Discography\1977 - Love For Sale\Boney M. - Love For Sale.wav
     Пиковый уровень 99.0 %
     Качество диапазона 100.0 %
     CRC копии B42A9255
     Копирование... OK
Ошибок не произошло
AccurateRip: сводка
Трек  1  точное извлечение (доверие 3)  [D757346E]
Трек  2  точное извлечение (доверие 3)  [6EDB3955]
Трек  3  точное извлечение (доверие 3)  [66C6252E]
Трек  4  точное извлечение (доверие 3)  [3C9F4706]
Трек  5  точное извлечение (доверие 3)  [8A89CA68]
Трек  6  точное извлечение (доверие 3)  [8C54E8F5]
Трек  7  точное извлечение (доверие 3)  [009A3130]
Трек  8  точное извлечение (доверие 3)  [BF91A094]
Трек  9  точное извлечение (доверие 3)  [2D090CCD]
Трек 10  точное извлечение (доверие 3)  [B4921311]
Все треки извлечены точно
Конец отчёта

содержание индексной карты *cue

REM GENRE Disco
REM DATE 1977
REM DISCID 9709B10A
REM COMMENT "ExactAudioCopy v0.99pb5"
PERFORMER "Boney M."
TITLE "Love For Sale"
FILE "Boney M. - Love For Sale.ape" WAVE
  TRACK 01 AUDIO
    TITLE "Ma Baker"
    PERFORMER "Boney M."
    INDEX 00 00:00:00
    INDEX 01 00:00:32
  TRACK 02 AUDIO
    TITLE "Love For Sale"
    PERFORMER "Boney M."
    INDEX 00 04:36:10
    INDEX 01 04:37:15
  TRACK 03 AUDIO
    TITLE "Belfast"
    PERFORMER "Boney M."
    INDEX 00 09:22:22
    INDEX 01 09:24:30
  TRACK 04 AUDIO
    TITLE "Have You Ever Seen The Rain"
    PERFORMER "Boney M."
    INDEX 00 12:54:20
    INDEX 01 12:55:32
  TRACK 05 AUDIO
    TITLE "Gloria, Can You Waddle"
    PERFORMER "Boney M."
    INDEX 00 15:34:50
    INDEX 01 15:35:55
  TRACK 06 AUDIO
    TITLE "Plantation Boy"
    PERFORMER "Boney M."
    INDEX 00 19:32:10
    INDEX 01 19:33:32
  TRACK 07 AUDIO
    TITLE "Motherless Child"
    PERFORMER "Boney M."
    INDEX 00 23:58:32
    INDEX 01 24:00:42
  TRACK 08 AUDIO
    TITLE "Silent Lover"
    PERFORMER "Boney M."
    INDEX 00 28:56:60
    INDEX 01 28:59:10
  TRACK 09 AUDIO
    TITLE "A Woman Can Change A Man"
    PERFORMER "Boney M."
    INDEX 00 33:12:05
    INDEX 01 33:13:27
  TRACK 10 AUDIO
    TITLE "Still I'm Sad"
    PERFORMER "Boney M."
    INDEX 00 36:44:62
    INDEX 01 36:46:45

1978 - Nightflight To Venus || 00:44:55

01.Nightflight To Venus (04:48)
02.Rasputin (05:53)
03.Painter Man (03:12)
04.He Was A Steppenwolf (06:52)
05.King Of The Road (02:38)
06.Rivers Of Babylon (04:22)
07.Voodoonight (03:32)
08.Brown Girl In The Ring (04:03)
09.Never Change Lovers In The Middle Of The Night (05:34)
10.Heart Of Gold (04:06)

лог создания рипа

Exact Audio Copy V0.99 prebeta 5 from 4. May 2009
Отчёт EAC об извлечении, выполненном 9. июня 2009, 14:10
Boney M. / Nightflight To Venus
Дисковод: HL-DT-STDVDRAM GH20NS10   Adapter: 0  ID: 0
Режим чтения                 : Достоверность
Использование точного потока : Да
Отключение кэша аудио        : Да
Использование указателей C2  : Нет
Коррекция смещения при чтении                     : 667
Способность читать области Lead-in и Lead-out     : Нет
Заполнение пропущенных сэмплов тишиной            : Да
Удаление блоков с тишиной в начале и конце        : Нет
При вычислениях CRC использовались нулевые сэмплы : Да
Интерфейс                                         : Установленный внешний ASPI-интерфейс
Выходной формат : Внутренние WAV-операции
Формат сэмплов  : 44.100 Гц; 16 бит; стерео
TOC извлечённого CD
     Трек |   Старт  | Длительность | Начальный сектор | Конечный сектор
    ---------------------------------------------------------------------
       1  |  0:00.32 |    4:47.18   |          32      |      21574
       2  |  4:47.50 |    5:52.15   |       21575      |      47989
       3  | 10:39.65 |    3:11.17   |       47990      |      62331
       4  | 13:51.07 |    6:51.53   |       62332      |      93209
       5  | 20:42.60 |    2:37.22   |       93210      |     105006
       6  | 23:20.07 |    4:21.63   |      105007      |     124644
       7  | 27:41.70 |    3:31.40   |      124645      |     140509
       8  | 31:13.35 |    4:02.62   |      140510      |     158721
       9  | 35:16.22 |    5:33.70   |      158722      |     183766
      10  | 40:50.17 |    4:05.15   |      183767      |     202156
Характеристики диапазона извлечения и сообщения об ошибках
Выбранный диапазон
     Имя файла K:\Boney M - Discography\1978 - Nightflight To Venus\Boney M. - Nightflight To Venus.wav
     Пиковый уровень 99.0 %
     Качество диапазона 100.0 %
     CRC копии A778B5C9
     Копирование... OK
Ошибок не произошло
AccurateRip: сводка
Трек  1  точное извлечение (доверие 12)  [943E64EE]
Трек  2  точное извлечение (доверие 12)  [3CD1647C]
Трек  3  точное извлечение (доверие 12)  [104BE3C3]
Трек  4  точное извлечение (доверие 12)  [C6125362]
Трек  5  точное извлечение (доверие 10)  [B1B6E4A4]
Трек  6  точное извлечение (доверие 10)  [39E41A39]
Трек  7  точное извлечение (доверие 11)  [B6950951]
Трек  8  точное извлечение (доверие 10)  [C8DBF753]
Трек  9  точное извлечение (доверие 10)  [86732304]
Трек 10  точное извлечение (доверие 10)  [E5365682]
Все треки извлечены точно
Конец отчёта

содержание индексной карты *cue

REM GENRE Disco
REM DATE 1978
REM DISCID 7E0A870A
REM COMMENT "ExactAudioCopy v0.99pb5"
PERFORMER "Boney M."
TITLE "Nightflight To Venus"
FILE "Boney M. - Nightflight To Venus.ape" WAVE
  TRACK 01 AUDIO
    TITLE "Nightflight To Venus"
    PERFORMER "Boney M."
    INDEX 00 00:00:00
    INDEX 01 00:00:32
  TRACK 02 AUDIO
    TITLE "Rasputin"
    PERFORMER "Boney M."
    INDEX 01 04:47:50
  TRACK 03 AUDIO
    TITLE "Painter Man"
    PERFORMER "Boney M."
    INDEX 00 10:39:07
    INDEX 01 10:39:65
  TRACK 04 AUDIO
    TITLE "He Was A Steppenwolf"
    PERFORMER "Boney M."
    INDEX 00 13:50:30
    INDEX 01 13:51:07
  TRACK 05 AUDIO
    TITLE "King Of The Road"
    PERFORMER "Boney M."
    INDEX 00 20:42:12
    INDEX 01 20:42:60
  TRACK 06 AUDIO
    TITLE "Rivers Of Babylon"
    PERFORMER "Boney M."
    INDEX 00 23:18:55
    INDEX 01 23:20:07
  TRACK 07 AUDIO
    TITLE "Voodoonight"
    PERFORMER "Boney M."
    INDEX 00 27:41:27
    INDEX 01 27:41:70
  TRACK 08 AUDIO
    TITLE "Brown Girl In The Ring"
    PERFORMER "Boney M."
    INDEX 00 31:12:42
    INDEX 01 31:13:35
  TRACK 09 AUDIO
    TITLE "Never Change Lovers In The Middle Of The Night"
    PERFORMER "Boney M."
    INDEX 00 35:15:42
    INDEX 01 35:16:22
  TRACK 10 AUDIO
    TITLE "Heart Of Gold"
    PERFORMER "Boney M."
    INDEX 00 40:49:40
    INDEX 01 40:50:17

1979 - Oceans Of Fantasy || 00:52:04

01.Let It All Be Music (04:56)
02.Gotta Go Home (03:47)
03.Bye Bye Bluebird (04:51)
04.Bahama Mama (03:18)
05.Hold On, I'm Coming (03:38)
06.Two Of Us (03:17)
07.Ribbons Of Blue (02:01)
08.Oceans Of Fantasy (05:08)
09.El Lute (05:58)
10.No More Chain Gang (05:25)
11.I'm Born Again (04:10)
12.No Time To Lose (02:57)
13.Calendar Song (January, February, March ...) (02:42)

лог создания рипа

Exact Audio Copy V0.99 prebeta 5 from 4. May 2009
Отчёт EAC об извлечении, выполненном 9. июня 2009, 14:22
Boney M. / Oceans of Fantasy
Дисковод: HL-DT-STDVDRAM GH20NS10   Adapter: 0  ID: 0
Режим чтения                 : Достоверность
Использование точного потока : Да
Отключение кэша аудио        : Да
Использование указателей C2  : Нет
Коррекция смещения при чтении                     : 667
Способность читать области Lead-in и Lead-out     : Нет
Заполнение пропущенных сэмплов тишиной            : Да
Удаление блоков с тишиной в начале и конце        : Нет
При вычислениях CRC использовались нулевые сэмплы : Да
Интерфейс                                         : Установленный внешний ASPI-интерфейс
Выходной формат : Внутренние WAV-операции
Формат сэмплов  : 44.100 Гц; 16 бит; стерео
TOC извлечённого CD
     Трек |   Старт  | Длительность | Начальный сектор | Конечный сектор
    ---------------------------------------------------------------------
       1  |  0:00.32 |    4:55.53   |          32      |      22209
       2  |  4:56.10 |    3:46.57   |       22210      |      39216
       3  |  8:42.67 |    4:50.68   |       39217      |      61034
       4  | 13:33.60 |    3:17.70   |       61035      |      75879
       5  | 16:51.55 |    3:37.42   |       75880      |      92196
       6  | 20:29.22 |    3:16.63   |       92197      |     106959
       7  | 23:46.10 |    2:00.20   |      106960      |     115979
       8  | 25:46.30 |    5:07.52   |      115980      |     139056
       9  | 30:54.07 |    5:57.33   |      139057      |     165864
      10  | 36:51.40 |    5:24.40   |      165865      |     190204
      11  | 42:16.05 |    4:09.55   |      190205      |     208934
      12  | 46:25.60 |    2:56.65   |      208935      |     222199
      13  | 49:22.50 |    2:41.57   |      222200      |     234331
Характеристики диапазона извлечения и сообщения об ошибках
Выбранный диапазон
     Имя файла K:\Boney M - Discography\1979 - Oceans Of Fantasy\Boney M. - Oceans of Fantasy.wav
     Пиковый уровень 99.0 %
     Качество диапазона 99.9 %
     CRC копии C846CD83
     Копирование... OK
Ошибок не произошло
AccurateRip: сводка
Трек  1  точное извлечение (доверие 4)  [2F839997]
Трек  2  точное извлечение (доверие 4)  [E953EF00]
Трек  3  точное извлечение (доверие 4)  [0C751AD0]
Трек  4  точное извлечение (доверие 4)  [40CF3800]
Трек  5  точное извлечение (доверие 4)  [5E6022B0]
Трек  6  точное извлечение (доверие 3)  [4B8C3373]
Трек  7  точное извлечение (доверие 3)  [9DEC58B3]
Трек  8  точное извлечение (доверие 4)  [0D1BEBDA]
Трек  9  точное извлечение (доверие 3)  [F11885D2]
Трек 10  точное извлечение (доверие 4)  [2D79285E]
Трек 11  точное извлечение (доверие 3)  [036B3EE7]
Трек 12  точное извлечение (доверие 4)  [17C19EDF]
Трек 13  точное извлечение (доверие 3)  [0FF88731]
Все треки извлечены точно
Конец отчёта

содержание индексной карты *cue

REM GENRE Disco
REM DATE 1979
REM DISCID B60C340D
REM COMMENT "ExactAudioCopy v0.99pb5"
PERFORMER "Boney M."
TITLE "Oceans of Fantasy"
FILE "Boney M. - Oceans of Fantasy.ape" WAVE
  TRACK 01 AUDIO
    TITLE "Let It All Be Music"
    PERFORMER "Boney M."
    INDEX 00 00:00:00
    INDEX 01 00:00:32
  TRACK 02 AUDIO
    TITLE "Gotta Go Home"
    PERFORMER "Boney M."
    INDEX 00 04:53:57
    INDEX 01 04:56:10
  TRACK 03 AUDIO
    TITLE "Bye Bye Bluebird"
    PERFORMER "Boney M."
    INDEX 00 08:41:57
    INDEX 01 08:42:67
  TRACK 04 AUDIO
    TITLE "Bahama Mama"
    PERFORMER "Boney M."
    INDEX 00 13:31:57
    INDEX 01 13:33:60
  TRACK 05 AUDIO
    TITLE "Hold On, I'm Coming"
    PERFORMER "Boney M."
    INDEX 00 16:50:55
    INDEX 01 16:51:55
  TRACK 06 AUDIO
    TITLE "Two Of Us"
    PERFORMER "Boney M."
    INDEX 00 20:27:47
    INDEX 01 20:29:22
  TRACK 07 AUDIO
    TITLE "Ribbons Of Blue"
    PERFORMER "Boney M."
    INDEX 00 23:44:50
    INDEX 01 23:46:10
  TRACK 08 AUDIO
    TITLE "Oceans Of Fantasy"
    PERFORMER "Boney M."
    INDEX 00 25:44:72
    INDEX 01 25:46:30
  TRACK 09 AUDIO
    TITLE "El Lute"
    PERFORMER "Boney M."
    INDEX 00 30:53:20
    INDEX 01 30:54:07
  TRACK 10 AUDIO
    TITLE "No More Chain Gang"
    PERFORMER "Boney M."
    INDEX 00 36:49:32
    INDEX 01 36:51:40
  TRACK 11 AUDIO
    TITLE "I'm Born Again"
    PERFORMER "Boney M."
    INDEX 00 42:14:42
    INDEX 01 42:16:05
  TRACK 12 AUDIO
    TITLE "No Time To Lose"
    PERFORMER "Boney M."
    INDEX 00 46:24:27
    INDEX 01 46:25:60
  TRACK 13 AUDIO
    TITLE "Calendar Song (January, February, March ...)"
    PERFORMER "Boney M."
    INDEX 00 49:21:10
    INDEX 01 49:22:50

1981 - Boonoonoonoos || 01:02:27

01.Boonoonoonoos (04:41)
02.That's Boonoonoonoos/Train To Skaville/I Shall Sing (05:57)
03.Silly Confusion (07:19)
04.Ride To Agadir (05:12)
05.Jimmy (04:11)
06.African Moon (03:03)
07.We Kill The World (Don't Kill The World) (06:34)
08.Homeland Africa (Ship Ahoi) (04:22)
09.Malaika (03:28)
10.Consuela Biaz (04:38)
11.Breakaway (04:19)
12.Sad Movies (03:24)
13.Goodbye My Friend (05:26)

лог создания рипа

Exact Audio Copy V0.99 prebeta 5 from 4. May 2009
Отчёт EAC об извлечении, выполненном 9. июня 2009, 15:34
Boney M. / Boonoonoonoos
Дисковод: HL-DT-STDVDRAM GH20NS10   Adapter: 0  ID: 0
Режим чтения                 : Достоверность
Использование точного потока : Да
Отключение кэша аудио        : Да
Использование указателей C2  : Нет
Коррекция смещения при чтении                     : 667
Способность читать области Lead-in и Lead-out     : Нет
Заполнение пропущенных сэмплов тишиной            : Да
Удаление блоков с тишиной в начале и конце        : Нет
При вычислениях CRC использовались нулевые сэмплы : Да
Интерфейс                                         : Установленный внешний ASPI-интерфейс
Выходной формат : Внутренние WAV-операции
Формат сэмплов  : 44.100 Гц; 16 бит; стерео
TOC извлечённого CD
     Трек |   Старт  | Длительность | Начальный сектор | Конечный сектор
    ---------------------------------------------------------------------
       1  |  0:00.32 |    4:40.35   |          32      |      21066
       2  |  4:40.67 |    5:56.50   |       21067      |      47816
       3  | 10:37.42 |    7:18.70   |       47817      |      80736
       4  | 17:56.37 |    5:11.38   |       80737      |     104099
       5  | 23:08.00 |    4:10.15   |      104100      |     122864
       6  | 27:18.15 |    3:02.07   |      122865      |     136521
       7  | 30:20.22 |    6:33.50   |      136522      |     166046
       8  | 36:53.72 |    4:21.15   |      166047      |     185636
       9  | 41:15.12 |    3:27.15   |      185637      |     201176
      10  | 44:42.27 |    4:37.08   |      201177      |     221959
      11  | 49:19.35 |    4:18.27   |      221960      |     241336
      12  | 53:37.62 |    3:23.23   |      241337      |     256584
      13  | 57:01.10 |    5:25.60   |      256585      |     281019
Характеристики диапазона извлечения и сообщения об ошибках
Выбранный диапазон
     Имя файла K:\Boney M - Discography\1981 - Boonoonoonoos\Boney M. - Boonoonoonoos.wav
     Пиковый уровень 99.0 %
     Качество диапазона 100.0 %
     CRC копии 172547E6
     Копирование... OK
Ошибок не произошло
AccurateRip: сводка
Трек  1  точное извлечение (доверие 4)  [47D3CC8A]
Трек  2  точное извлечение (доверие 4)  [0F8029EB]
Трек  3  точное извлечение (доверие 4)  [3D6FC016]
Трек  4  точное извлечение (доверие 4)  [0391D80B]
Трек  5  точное извлечение (доверие 4)  [EF1D4688]
Трек  6  точное извлечение (доверие 4)  [4255DF89]
Трек  7  точное извлечение (доверие 4)  [FA18DA64]
Трек  8  точное извлечение (доверие 4)  [B349DD19]
Трек  9  точное извлечение (доверие 4)  [4C691BB7]
Трек 10  точное извлечение (доверие 4)  [6E10B39E]
Трек 11  точное извлечение (доверие 4)  [EA1FE8C5]
Трек 12  точное извлечение (доверие 4)  [6295D9A1]
Трек 13  точное извлечение (доверие 4)  [3DE25CD6]
Все треки извлечены точно
Конец отчёта

содержание индексной карты *cue

REM GENRE Pop
REM DATE 1981
REM DISCID B40EA20D
REM COMMENT "ExactAudioCopy v0.99pb5"
PERFORMER "Boney M."
TITLE "Boonoonoonoos"
FILE "Boney M. - Boonoonoonoos.ape" WAVE
  TRACK 01 AUDIO
    TITLE "Boonoonoonoos"
    PERFORMER "Boney M."
    INDEX 00 00:00:00
    INDEX 01 00:00:32
  TRACK 02 AUDIO
    TITLE "That's Boonoonoonoos/Train To Skaville/I Shall Sing"
    PERFORMER "Boney M."
    INDEX 01 04:40:67
  TRACK 03 AUDIO
    TITLE "Silly Confusion"
    PERFORMER "Boney M."
    INDEX 00 10:36:67
    INDEX 01 10:37:42
  TRACK 04 AUDIO
    TITLE "Ride To Agadir"
    PERFORMER "Boney M."
    INDEX 01 17:56:37
  TRACK 05 AUDIO
    TITLE "Jimmy"
    PERFORMER "Boney M."
    INDEX 01 23:08:00
  TRACK 06 AUDIO
    TITLE "African Moon"
    PERFORMER "Boney M."
    INDEX 00 27:15:25
    INDEX 01 27:18:15
  TRACK 07 AUDIO
    TITLE "We Kill The World (Don't Kill The World)"
    PERFORMER "Boney M."
    INDEX 00 30:19:05
    INDEX 01 30:20:22
  TRACK 08 AUDIO
    TITLE "Homeland Africa (Ship Ahoi)"
    PERFORMER "Boney M."
    INDEX 00 36:53:67
    INDEX 01 36:53:72
  TRACK 09 AUDIO
    TITLE "Malaika"
    PERFORMER "Boney M."
    INDEX 00 41:14:45
    INDEX 01 41:15:12
  TRACK 10 AUDIO
    TITLE "Consuela Biaz"
    PERFORMER "Boney M."
    INDEX 00 44:41:50
    INDEX 01 44:42:27
  TRACK 11 AUDIO
    TITLE "Breakaway"
    PERFORMER "Boney M."
    INDEX 00 49:19:27
    INDEX 01 49:19:35
  TRACK 12 AUDIO
    TITLE "Sad Movies"
    PERFORMER "Boney M."
    INDEX 00 53:37:05
    INDEX 01 53:37:62
  TRACK 13 AUDIO
    TITLE "Goodbye My Friend"
    PERFORMER "Boney M."
    INDEX 00 56:59:60
    INDEX 01 57:01:10

1984-01 - Ten Thousand Lightyears || 00:48:44

01.Exodus (Noah's Ark 2001) (05:20)
02.Wild Planet (04:05)
03.Future World (03:54)
04.Where Did You Go (04:11)
05.10,000 Lightyears (04:34)
06.I Feel Good (03:05)
07.Somewhere In The World (04:40)
08.Bel Ami (03:12)
09.Living Like A Moviestar (03:06)
10.Dizzy (03:31)
11.The Alibama (03:13)
12.Jimmy (03:03)
13.Barbarella Fortuneteller (02:55)

лог создания рипа

Exact Audio Copy V0.99 prebeta 5 from 4. May 2009
Отчёт EAC об извлечении, выполненном 9. июня 2009, 15:47
Boney M. / 10,000 Lightyears
Дисковод: HL-DT-STDVDRAM GH20NS10   Adapter: 0  ID: 0
Режим чтения                 : Достоверность
Использование точного потока : Да
Отключение кэша аудио        : Да
Использование указателей C2  : Нет
Коррекция смещения при чтении                     : 667
Способность читать области Lead-in и Lead-out     : Нет
Заполнение пропущенных сэмплов тишиной            : Да
Удаление блоков с тишиной в начале и конце        : Нет
При вычислениях CRC использовались нулевые сэмплы : Да
Интерфейс                                         : Установленный внешний ASPI-интерфейс
Выходной формат : Внутренние WAV-операции
Формат сэмплов  : 44.100 Гц; 16 бит; стерео
TOC извлечённого CD
     Трек |   Старт  | Длительность | Начальный сектор | Конечный сектор
    ---------------------------------------------------------------------
       1  |  0:00.33 |    5:19.62   |          33      |      24019
       2  |  5:20.20 |    4:04.60   |       24020      |      42379
       3  |  9:25.05 |    3:53.60   |       42380      |      59914
       4  | 13:18.65 |    4:11.00   |       59915      |      78739
       5  | 17:29.65 |    4:33.18   |       78740      |      99232
       6  | 22:03.08 |    3:05.00   |       99233      |     113107
       7  | 25:08.08 |    4:39.07   |      113108      |     134039
       8  | 29:47.15 |    3:11.30   |      134040      |     148394
       9  | 32:58.45 |    3:05.08   |      148395      |     162277
      10  | 36:03.53 |    3:30.37   |      162278      |     178064
      11  | 39:34.15 |    3:12.28   |      178065      |     192492
      12  | 42:46.43 |    3:02.72   |      192493      |     206214
      13  | 45:49.40 |    2:54.68   |      206215      |     219332
Характеристики диапазона извлечения и сообщения об ошибках
Выбранный диапазон
     Имя файла K:\Boney M - Discography\1984 - Ten Thousand Lightyears\Boney M. - 10,000 Lightyears.wav
     Пиковый уровень 99.0 %
     Качество диапазона 100.0 %
     CRC копии 0185FD06
     Копирование... OK
Ошибок не произошло
AccurateRip: сводка
Трек  1  точное извлечение (доверие 4)  [8911B5B8]
Трек  2  точное извлечение (доверие 4)  [5A4AE411]
Трек  3  точное извлечение (доверие 4)  [C5D77CED]
Трек  4  точное извлечение (доверие 4)  [672FAA37]
Трек  5  точное извлечение (доверие 3)  [70DDA678]
Трек  6  точное извлечение (доверие 4)  [F5D1C0FF]
Трек  7  точное извлечение (доверие 4)  [D75EA764]
Трек  8  точное извлечение (доверие 4)  [A19BBC5F]
Трек  9  точное извлечение (доверие 4)  [51035FA9]
Трек 10  точное извлечение (доверие 4)  [50040B82]
Трек 11  точное извлечение (доверие 4)  [46213A46]
Трек 12  точное извлечение (доверие 4)  [5CA6BC8C]
Трек 13  точное извлечение (доверие 4)  [64029CB8]
Все треки извлечены точно
Конец отчёта

содержание индексной карты *cue

REM GENRE Pop
REM DATE 1984
REM DISCID AB0B6C0D
REM COMMENT "ExactAudioCopy v0.99pb5"
PERFORMER "Boney M."
TITLE "10,000 Lightyears"
FILE "Boney M. - 10,000 Lightyears.ape" WAVE
  TRACK 01 AUDIO
    TITLE "Exodus (Noah's Ark 2001)"
    PERFORMER "Boney M."
    INDEX 00 00:00:00
    INDEX 01 00:00:33
  TRACK 02 AUDIO
    TITLE "Wild Planet"
    PERFORMER "Boney M."
    INDEX 01 05:20:20
  TRACK 03 AUDIO
    TITLE "Future World"
    PERFORMER "Boney M."
    INDEX 00 09:24:70
    INDEX 01 09:25:05
  TRACK 04 AUDIO
    TITLE "Where Did You Go"
    PERFORMER "Boney M."
    INDEX 00 13:15:33
    INDEX 01 13:18:65
  TRACK 05 AUDIO
    TITLE "10,000 Lightyears"
    PERFORMER "Boney M."
    INDEX 00 17:27:15
    INDEX 01 17:29:65
  TRACK 06 AUDIO
    TITLE "I Feel Good"
    PERFORMER "Boney M."
    INDEX 00 22:01:58
    INDEX 01 22:03:08
  TRACK 07 AUDIO
    TITLE "Somewhere In The World"
    PERFORMER "Boney M."
    INDEX 00 25:07:33
    INDEX 01 25:08:08
  TRACK 08 AUDIO
    TITLE "Bel Ami"
    PERFORMER "Boney M."
    INDEX 00 29:46:10
    INDEX 01 29:47:15
  TRACK 09 AUDIO
    TITLE "Living Like A Moviestar"
    PERFORMER "Boney M."
    INDEX 00 32:58:40
    INDEX 01 32:58:45
  TRACK 10 AUDIO
    TITLE "Dizzy"
    PERFORMER "Boney M."
    INDEX 00 36:02:30
    INDEX 01 36:03:53
  TRACK 11 AUDIO
    TITLE "The Alibama"
    PERFORMER "Boney M."
    INDEX 00 39:31:33
    INDEX 01 39:34:15
  TRACK 12 AUDIO
    TITLE "Jimmy"
    PERFORMER "Boney M."
    INDEX 00 42:44:65
    INDEX 01 42:46:43
  TRACK 13 AUDIO
    TITLE "Barbarella Fortuneteller"
    PERFORMER "Boney M."
    INDEX 00 45:47:60
    INDEX 01 45:49:40

1984-02 - Kalimba De Luna || 00:53:58

01.Happy Song (06:42)
02.Going Back West (03:12)
03.Barbarella Fortuneteller (02:55)
04.I Feel Good (03:05)
05.Consuela Biaz (02:42)
06.Jambo - Hakuna Matata (No Problems) (02:50)
07.Jimmy (02:57)
08.The Calendar Song (January, February, March) (02:23)
09.Kalimba De Luna (07:19)
10.Felicidad (Margherita) (02:53)
11.Living Like A Moviestar (02:57)
12.Gadda-Da-Vida (03:00)
13.Somewhere In The World (03:04)
14.African Moon (03:01)
15.Children Of Paradise (02:51)
16.Boonoonoonoos (02:13)

лог создания рипа

Exact Audio Copy V0.99 prebeta 5 from 4. May 2009
Отчёт EAC об извлечении, выполненном 9. июня 2009, 16:10
Boney M / Kalimba De Luna
Дисковод: HL-DT-STDVDRAM GH20NS10   Adapter: 0  ID: 0
Режим чтения                 : Достоверность
Использование точного потока : Да
Отключение кэша аудио        : Да
Использование указателей C2  : Нет
Коррекция смещения при чтении                     : 667
Способность читать области Lead-in и Lead-out     : Нет
Заполнение пропущенных сэмплов тишиной            : Да
Удаление блоков с тишиной в начале и конце        : Нет
При вычислениях CRC использовались нулевые сэмплы : Да
Интерфейс                                         : Установленный внешний ASPI-интерфейс
Выходной формат : Внутренние WAV-операции
Формат сэмплов  : 44.100 Гц; 16 бит; стерео
TOC извлечённого CD
     Трек |   Старт  | Длительность | Начальный сектор | Конечный сектор
    ---------------------------------------------------------------------
       1  |  0:00.00 |    6:41.10   |           0      |      30084
       2  |  6:41.10 |    3:11.25   |       30085      |      44434
       3  |  9:52.35 |    2:54.68   |       44435      |      57552
       4  | 12:47.28 |    3:04.40   |       57553      |      71392
       5  | 15:51.68 |    2:41.52   |       71393      |      83519
       6  | 18:33.45 |    2:49.30   |       83520      |      96224
       7  | 21:23.00 |    2:56.48   |       96225      |     109472
       8  | 24:19.48 |    2:22.72   |      109473      |     120194
       9  | 26:42.45 |    7:18.58   |      120195      |     153102
      10  | 34:01.28 |    2:52.05   |      153103      |     166007
      11  | 36:53.33 |    2:56.50   |      166008      |     179257
      12  | 39:50.08 |    2:59.50   |      179258      |     192732
      13  | 42:49.58 |    3:03.40   |      192733      |     206497
      14  | 45:53.23 |    3:00.70   |      206498      |     220067
      15  | 48:54.18 |    2:50.30   |      220068      |     232847
      16  | 51:44.48 |    2:12.35   |      232848      |     242782
Характеристики диапазона извлечения и сообщения об ошибках
Выбранный диапазон
     Имя файла K:\Boney M - Discography\1984 - Kalimba De Luna\Boney M - Kalimba De Luna.wav
     Пиковый уровень 69.5 %
     Качество диапазона 100.0 %
     CRC копии A94D9819
     Копирование... OK
Ошибок не произошло
AccurateRip: сводка
Трек  1  нет в базе данных
Трек  2  нет в базе данных
Трек  3  нет в базе данных
Трек  4  нет в базе данных
Трек  5  нет в базе данных
Трек  6  нет в базе данных
Трек  7  нет в базе данных
Трек  8  нет в базе данных
Трек  9  нет в базе данных
Трек 10  нет в базе данных
Трек 11  нет в базе данных
Трек 12  нет в базе данных
Трек 13  нет в базе данных
Трек 14  нет в базе данных
Трек 15  нет в базе данных
Трек 16  нет в базе данных
Ни одного трека нет в базе AccurateRip
Конец отчёта

содержание индексной карты *cue

REM GENRE Rock
REM DATE 1984
REM DISCID D40CA510
REM COMMENT "ExactAudioCopy v0.99pb5"
PERFORMER "Boney M"
TITLE "Kalimba De Luna"
FILE "Boney M - Kalimba De Luna.ape" WAVE
  TRACK 01 AUDIO
    TITLE "Happy Song"
    PERFORMER "Boney M"
    INDEX 01 00:00:00
  TRACK 02 AUDIO
    TITLE "Going Back West"
    PERFORMER "Boney M"
    INDEX 00 06:40:68
    INDEX 01 06:41:10
  TRACK 03 AUDIO
    TITLE "Barbarella Fortuneteller"
    PERFORMER "Boney M"
    INDEX 00 09:52:00
    INDEX 01 09:52:35
  TRACK 04 AUDIO
    TITLE "I Feel Good"
    PERFORMER "Boney M"
    INDEX 01 12:47:28
  TRACK 05 AUDIO
    TITLE "Consuela Biaz"
    PERFORMER "Boney M"
    INDEX 00 15:51:65
    INDEX 01 15:51:68
  TRACK 06 AUDIO
    TITLE "Jambo - Hakuna Matata (No Problems)"
    PERFORMER "Boney M"
    INDEX 00 18:33:23
    INDEX 01 18:33:45
  TRACK 07 AUDIO
    TITLE "Jimmy"
    PERFORMER "Boney M"
    INDEX 01 21:23:00
  TRACK 08 AUDIO
    TITLE "The Calendar Song (January, February, March)"
    PERFORMER "Boney M"
    INDEX 01 24:19:48
  TRACK 09 AUDIO
    TITLE "Kalimba De Luna"
    PERFORMER "Boney M"
    INDEX 00 26:42:13
    INDEX 01 26:42:45
  TRACK 10 AUDIO
    TITLE "Felicidad (Margherita)"
    PERFORMER "Boney M"
    INDEX 01 34:01:28
  TRACK 11 AUDIO
    TITLE "Living Like A Moviestar"
    PERFORMER "Boney M"
    INDEX 01 36:53:33
  TRACK 12 AUDIO
    TITLE "Gadda-Da-Vida"
    PERFORMER "Boney M"
    INDEX 00 39:49:70
    INDEX 01 39:50:08
  TRACK 13 AUDIO
    TITLE "Somewhere In The World"
    PERFORMER "Boney M"
    INDEX 00 42:49:33
    INDEX 01 42:49:58
  TRACK 14 AUDIO
    TITLE "African Moon"
    PERFORMER "Boney M"
    INDEX 01 45:53:23
  TRACK 15 AUDIO
    TITLE "Children Of Paradise"
    PERFORMER "Boney M"
    INDEX 01 48:54:18
  TRACK 16 AUDIO
    TITLE "Boonoonoonoos"
    PERFORMER "Boney M"
    INDEX 01 51:44:48

1985 - Eye Dance || 00:40:50

01.Young, Free And Single (04:12)
02.Todos Buenos (04:36)
03.Give It Up (04:00)
04.Sample City (03:46)
05.My Cherie Amour (04:07)
06.Eye Dance (04:06)
07.Got Cha Loco (03:36)
08.Dreadlock Holiday (04:54)
09.Chica Da Silva (04:35)
10.Bang Bang Lulu (03:02)

лог создания рипа

Exact Audio Copy V0.99 prebeta 5 from 4. May 2009
Отчёт EAC об извлечении, выполненном 9. июня 2009, 16:20
Boney M. / Eye Dance
Дисковод: HL-DT-STDVDRAM GH20NS10   Adapter: 0  ID: 0
Режим чтения                 : Достоверность
Использование точного потока : Да
Отключение кэша аудио        : Да
Использование указателей C2  : Нет
Коррекция смещения при чтении                     : 667
Способность читать области Lead-in и Lead-out     : Нет
Заполнение пропущенных сэмплов тишиной            : Да
Удаление блоков с тишиной в начале и конце        : Нет
При вычислениях CRC использовались нулевые сэмплы : Да
Интерфейс                                         : Установленный внешний ASPI-интерфейс
Выходной формат : Внутренние WAV-операции
Формат сэмплов  : 44.100 Гц; 16 бит; стерео
TOC извлечённого CD
     Трек |   Старт  | Длительность | Начальный сектор | Конечный сектор
    ---------------------------------------------------------------------
       1  |  0:00.33 |    4:12.00   |          33      |      18932
       2  |  4:12.33 |    4:36.00   |       18933      |      39632
       3  |  8:48.33 |    3:59.37   |       39633      |      57594
       4  | 12:47.70 |    3:45.38   |       57595      |      74507
       5  | 16:33.33 |    4:06.37   |       74508      |      92994
       6  | 20:39.70 |    4:06.00   |       92995      |     111444
       7  | 24:45.70 |    3:35.38   |      111445      |     127607
       8  | 28:21.33 |    4:53.12   |      127608      |     149594
       9  | 33:14.45 |    4:34.25   |      149595      |     170169
      10  | 37:48.70 |    3:01.13   |      170170      |     183757
Характеристики диапазона извлечения и сообщения об ошибках
Выбранный диапазон
     Имя файла K:\Boney M - Discography\1985 - Eye Dance\Boney M. - Eye Dance.wav
     Пиковый уровень 89.3 %
     Качество диапазона 100.0 %
     CRC копии 3C074301
     Копирование... OK
Ошибок не произошло
AccurateRip: сводка
Трек  1  точное извлечение (доверие 2)  [E18D6A08]
Трек  2  точное извлечение (доверие 2)  [7317B345]
Трек  3  точное извлечение (доверие 2)  [9970C507]
Трек  4  точное извлечение (доверие 2)  [762A9EB2]
Трек  5  точное извлечение (доверие 2)  [CCB71DB5]
Трек  6  точное извлечение (доверие 2)  [A1702E7E]
Трек  7  точное извлечение (доверие 2)  [9B03F63A]
Трек  8  точное извлечение (доверие 2)  [5EC3F7C3]
Трек  9  точное извлечение (доверие 2)  [39D065F8]
Трек 10  точное извлечение (доверие 2)  [2B734596]
Все треки извлечены точно
Конец отчёта

содержание индексной карты *cue

REM GENRE Pop
REM DATE 1985
REM DISCID 8D09920A
REM COMMENT "ExactAudioCopy v0.99pb5"
PERFORMER "Boney M."
TITLE "Eye Dance"
FILE "Boney M. - Eye Dance.ape" WAVE
  TRACK 01 AUDIO
    TITLE "Young, Free And Single"
    PERFORMER "Boney M."
    INDEX 00 00:00:00
    INDEX 01 00:00:33
  TRACK 02 AUDIO
    TITLE "Todos Buenos"
    PERFORMER "Boney M."
    INDEX 00 04:11:20
    INDEX 01 04:12:33
  TRACK 03 AUDIO
    TITLE "Give It Up"
    PERFORMER "Boney M."
    INDEX 00 08:46:70
    INDEX 01 08:48:33
  TRACK 04 AUDIO
    TITLE "Sample City"
    PERFORMER "Boney M."
    INDEX 00 12:46:58
    INDEX 01 12:47:70
  TRACK 05 AUDIO
    TITLE "My Cherie Amour"
    PERFORMER "Boney M."
    INDEX 00 16:31:45
    INDEX 01 16:33:33
  TRACK 06 AUDIO
    TITLE "Eye Dance"
    PERFORMER "Boney M."
    INDEX 00 20:38:08
    INDEX 01 20:39:70
  TRACK 07 AUDIO
    TITLE "Got Cha Loco"
    PERFORMER "Boney M."
    INDEX 00 24:44:33
    INDEX 01 24:45:70
  TRACK 08 AUDIO
    TITLE "Dreadlock Holiday"
    PERFORMER "Boney M."
    INDEX 00 28:20:70
    INDEX 01 28:21:33
  TRACK 09 AUDIO
    TITLE "Chica Da Silva"
    PERFORMER "Boney M."
    INDEX 00 33:13:45
    INDEX 01 33:14:45
  TRACK 10 AUDIO
    TITLE "Bang Bang Lulu"
    PERFORMER "Boney M."
    INDEX 00 37:48:08
    INDEX 01 37:48:70
--
[Профиль] [ЛС]
Кто просматривает тему:

Форум Тема Автор Размер
Technopop, Eurodance, Disco (Disco) Boney M - Greatest Hits Of All Times (2CD) - 1988,1989 [MP3, tracks, 320 kbps] sergej644 241 MB
Показать сообщения:    

Текущее время: Сегодня 00:34

Часовой пояс: GMT



Вы не можете начинать темы
Вы не можете отвечать на сообщения
Вы не можете редактировать свои сообщения
Вы не можете удалять свои сообщения
Вы не можете голосовать в опросах
Вы не можете прикреплять файлы к сообщениям
Вы не можете скачивать файлы