Boney M - Take The Heat Off Me (1976) Japan [APE|Lossless]<Disco>

 
Автор Сообщение

sergej644 ®

Пол:

Стаж: 4 года 11 месяцев

Сообщений: 6035

Откуда: Soviet Union



Награды: Нет

Торрент-статистика

Создавать темы 24-Дек-2014 23:07

[Цитировать]

-Boney M - Take The Heat Off Me (1976) Japan- Год: 1976
Жанр: Disco
Label & Catalog#: SONY BMG MUSIC (Japan) Inc. - BVCM-31207
Продолжительность: 00:43:18
Кодек: APE [img+cue]
Битрейт: Lossless
Треклист:
01. Daddy Cool [03:30]
02. Take the Heat off Me [04:49]
03. Sunny [04:04]
04. Baby Do You Wanna Bump [06:54]
05. No Woman No Cry [05:00]
06. Fever [04:01]
07. Got A Man On My Mind [03:25]
08. Lovin' Or Leavin' [04:30]
09. New York City [03:45]
10. Perfect [03:17]

cue&#58;

REM GENRE Disco
REM DATE 2006
REM DISCID 660A260A
REM COMMENT "ExactAudioCopy v0.99pb5"
PERFORMER "Boney M."
TITLE "Take the Heat off Me"
FILE "Boney M. - Take the Heat off Me.wav" WAVE
  TRACK 01 AUDIO
    TITLE "Daddy Cool"
    PERFORMER "Boney M."
    INDEX 01 00:00:00
  TRACK 02 AUDIO
    TITLE "Take the Heat off Me"
    PERFORMER "Boney M."
    INDEX 00 03:28:38
    INDEX 01 03:30:42
  TRACK 03 AUDIO
    TITLE "Sunny"
    PERFORMER "Boney M."
    INDEX 00 08:17:40
    INDEX 01 08:19:44
  TRACK 04 AUDIO
    TITLE "Baby Do You Wanna Bump"
    PERFORMER "Boney M."
    INDEX 00 12:21:48
    INDEX 01 12:23:52
  TRACK 05 AUDIO
    TITLE "No Woman No Cry"
    PERFORMER "Boney M."
    INDEX 00 19:15:71
    INDEX 01 19:18:00
  TRACK 06 AUDIO
    TITLE "Fever"
    PERFORMER "Boney M."
    INDEX 00 24:16:57
    INDEX 01 24:18:61
  TRACK 07 AUDIO
    TITLE "Got A Man On My Mind"
    PERFORMER "Boney M."
    INDEX 00 28:18:10
    INDEX 01 28:20:14
  TRACK 08 AUDIO
    TITLE "Lovin' Or Leavin'"
    PERFORMER "Boney M."
    INDEX 00 31:43:32
    INDEX 01 31:45:36
  TRACK 09 AUDIO
    TITLE "New York City"
    PERFORMER "Boney M."
    INDEX 00 36:14:30
    INDEX 01 36:16:34
  TRACK 10 AUDIO
    TITLE "Perfect"
    PERFORMER "Boney M."
    INDEX 00 39:59:36
    INDEX 01 40:01:40

Отчёт ЕАС&#58;

Exact Audio Copy V0.99 prebeta 5 from 4. May 2009
Отчёт EAC об извлечении, выполненном 10. июля 2010, 9:48
Boney M. / Take the Heat off Me
Дисковод: PIONEER DVD-RW  DVR-218L   Adapter: 4  ID: 0
Режим чтения                 : Достоверность
Использование точного потока : Да
Отключение кэша аудио        : Да
Использование указателей C2  : Нет
Коррекция смещения при чтении                     : 6
Способность читать области Lead-in и Lead-out     : Нет
Заполнение пропущенных сэмплов тишиной            : Да
Удаление блоков с тишиной в начале и конце        : Нет
При вычислениях CRC использовались нулевые сэмплы : Да
Интерфейс                                         : Установленный внешний ASPI-интерфейс
Выходной формат : Внутренние WAV-операции
Формат сэмплов  : 44.100 Гц; 16 бит; стерео
TOC извлечённого CD
     Трек |   Старт  | Длительность | Начальный сектор | Конечный сектор
    ---------------------------------------------------------------------
       1  |  0:00.00 |    3:30.42   |           0      |      15791
       2  |  3:30.42 |    4:49.02   |       15792      |      37468
       3  |  8:19.44 |    4:04.08   |       37469      |      55776
       4  | 12:23.52 |    6:54.23   |       55777      |      86849
       5  | 19:18.00 |    5:00.61   |       86850      |     109410
       6  | 24:18.61 |    4:01.28   |      109411      |     127513
       7  | 28:20.14 |    3:25.22   |      127514      |     142910
       8  | 31:45.36 |    4:30.73   |      142911      |     163233
       9  | 36:16.34 |    3:45.06   |      163234      |     180114
      10  | 40:01.40 |    3:17.19   |      180115      |     194908
Характеристики диапазона извлечения и сообщения об ошибках
Выбранный диапазон
     Имя файла D:\Мои раздачи\Boney M. - Take the Heat off Me 2006 (1976)\ape\Boney M. - Take the Heat off Me.wav
     Пиковый уровень 99.9 %
     Качество диапазона 100.0 %
     CRC копии 4E87E11C
     Копирование... OK
Ошибок не произошло
AccurateRip: сводка
Трек  1  нет в базе данных
Трек  2  нет в базе данных
Трек  3  нет в базе данных
Трек  4  нет в базе данных
Трек  5  нет в базе данных
Трек  6  нет в базе данных
Трек  7  нет в базе данных
Трек  8  нет в базе данных
Трек  9  нет в базе данных
Трек 10  нет в базе данных
Ни одного трека нет в базе AccurateRip
Конец отчёта

Отчёт auCDtect Task manager&#58;

-----------------------
DON'T MODIFY THIS FILE
-----------------------
PERFORMER: auCDtect Task Manager, ver. 1.6.0 RC1 build 1.6.0.1
Copyright (c) 2008-2010 y-soft. All rights reserved
http://y-soft.org
ANALYZER: auCDtect: CD records authenticity detector, version 0.8.2
Copyright (c) 2004 Oleg Berngardt. All rights reserved.
Copyright (c) 2004 Alexander Djourik. All rights reserved.
FILE: Boney M. - Take the Heat off Me.ape
  Size: 305196844 Hash: B6B27FC8986E99F9EBE671DFBD7B12E2 Accuracy: -m0
  Conclusion: CDDA 100%
  Signature: 097FB0BB52DE1D1E497B0A658619AC750581241C

Спектрограмма &amp; OBI&#58;

Thanks ManstrВремя раздачи: 19.00 - 23.00-
[Профиль] [ЛС]

Создавать темы 13-Авг-2015 10:41 (спустя 7 месяцев 19 дней)

Топик был перенесен из форума Зарубежная в форум Technopop, Eurodance, Disco
sergej644
 
Показать сообщения:    

Текущее время: Сегодня 22:36

Часовой пояс: GMT



Вы не можете начинать темы
Вы не можете отвечать на сообщения
Вы не можете редактировать свои сообщения
Вы не можете удалять свои сообщения
Вы не можете голосовать в опросах
Вы не можете прикреплять файлы к сообщениям
Вы не можете скачивать файлы