Boney M - Nightflight To Venus (1978) Japan [APE|Lossless]<Disco>

 
Автор Сообщение

sergej644 ®

Пол:

Стаж: 4 года 11 месяцев

Сообщений: 6046

Откуда: Soviet Union



Награды: Нет

Торрент-статистика

Создавать темы 24-Дек-2014 23:07

[Цитировать]

-Boney M - Nightflight To Venus (1978) Japan- Год: 1978
Жанр: Disco
Label & Catalog#: SONY BMG MUSIC (Japan) Inc. 2006 - BVCM-31208
Продолжительность: 00:54:51
Кодек: APE [img+cue]
Битрейт: Lossless
Треклист:
01. Nightflight To Venus [04:49]
02. Rasputin [05:53]
03. Painter Man [03:12]
04. He Was A Steppenwolf [06:52]
05. King Of The Road [02:37]
06. Rivers Of Babylon [04:23]
07. Voodoonight [03:32]
08. Brown Girl In The Ring [04:03]
09. Never Change Lovers In The Middle Of The Night [05:35]
10. Heart Of Gold [04:07]
11. Mary's Boy Child - Oh My Lord [05:44]
12. Dancing In The Street [03:58]

cue&#58;

REM GENRE Disco
REM DATE 2006
REM DISCID 970CDB0C
REM COMMENT "ExactAudioCopy v0.99pb5"
PERFORMER "Boney M."
TITLE "Nightflight To Venus"
FILE "Boney M. - Nightflight To Venus.wav" WAVE
  TRACK 01 AUDIO
    TITLE "Nightflight To Venus"
    PERFORMER "Boney M."
    INDEX 01 00:00:00
  TRACK 02 AUDIO
    TITLE "Rasputin"
    PERFORMER "Boney M."
    INDEX 00 04:47:14
    INDEX 01 04:49:18
  TRACK 03 AUDIO
    TITLE "Painter Man"
    PERFORMER "Boney M."
    INDEX 00 10:40:55
    INDEX 01 10:42:59
  TRACK 04 AUDIO
    TITLE "He Was A Steppenwolf"
    PERFORMER "Boney M."
    INDEX 00 13:53:30
    INDEX 01 13:55:34
  TRACK 05 AUDIO
    TITLE "King Of The Road"
    PERFORMER "Boney M."
    INDEX 00 20:46:19
    INDEX 01 20:48:23
  TRACK 06 AUDIO
    TITLE "Rivers Of Babylon"
    PERFORMER "Boney M."
    INDEX 00 23:24:13
    INDEX 01 23:26:17
  TRACK 07 AUDIO
    TITLE "Voodoonight"
    PERFORMER "Boney M."
    INDEX 00 27:47:25
    INDEX 01 27:49:29
  TRACK 08 AUDIO
    TITLE "Brown Girl In The Ring"
    PERFORMER "Boney M."
    INDEX 00 31:19:58
    INDEX 01 31:21:62
  TRACK 09 AUDIO
    TITLE "Never Change Lovers In The Middle Of The Night"
    PERFORMER "Boney M."
    INDEX 00 35:23:42
    INDEX 01 35:25:46
  TRACK 10 AUDIO
    TITLE "Heart Of Gold"
    PERFORMER "Boney M."
    INDEX 00 40:59:00
    INDEX 01 41:01:04
  TRACK 11 AUDIO
    TITLE "Mary's Boy Child - Oh My Lord"
    PERFORMER "Boney M."
    INDEX 00 45:06:05
    INDEX 01 45:08:09
  TRACK 12 AUDIO
    TITLE "Dancing In The Street"
    PERFORMER "Boney M."
    INDEX 00 50:50:65
    INDEX 01 50:52:69

Отчёт ЕАС&#58;

Exact Audio Copy V0.99 prebeta 5 from 4. May 2009
Отчёт EAC об извлечении, выполненном 10. июля 2010, 1:25
Boney M. / Nightflight To Venus
Дисковод: PIONEER DVD-RW  DVR-218L   Adapter: 4  ID: 0
Режим чтения                 : Достоверность
Использование точного потока : Да
Отключение кэша аудио        : Да
Использование указателей C2  : Нет
Коррекция смещения при чтении                     : 6
Способность читать области Lead-in и Lead-out     : Нет
Заполнение пропущенных сэмплов тишиной            : Да
Удаление блоков с тишиной в начале и конце        : Нет
При вычислениях CRC использовались нулевые сэмплы : Да
Интерфейс                                         : Установленный внешний ASPI-интерфейс
Выходной формат : Внутренние WAV-операции
Формат сэмплов  : 44.100 Гц; 16 бит; стерео
TOC извлечённого CD
     Трек |   Старт  | Длительность | Начальный сектор | Конечный сектор
    ---------------------------------------------------------------------
       1  |  0:00.00 |    4:49.18   |           0      |      21692
       2  |  4:49.18 |    5:53.41   |       21693      |      48208
       3  | 10:42.59 |    3:12.50   |       48209      |      62658
       4  | 13:55.34 |    6:52.64   |       62659      |      93622
       5  | 20:48.23 |    2:37.69   |       93623      |     105466
       6  | 23:26.17 |    4:23.12   |      105467      |     125203
       7  | 27:49.29 |    3:32.33   |      125204      |     141136
       8  | 31:21.62 |    4:03.59   |      141137      |     159420
       9  | 35:25.46 |    5:35.33   |      159421      |     184578
      10  | 41:01.04 |    4:07.05   |      184579      |     203108
      11  | 45:08.09 |    5:44.60   |      203109      |     228968
      12  | 50:52.69 |    3:58.46   |      228969      |     246864
Характеристики диапазона извлечения и сообщения об ошибках
Выбранный диапазон
     Имя файла D:\Мои раздачи\Boney M. - Nightflight To Venus (BVCM-31208, 2006) 1978\ape\Boney M. - Nightflight To Venus.wav
     Пиковый уровень 99.2 %
     Качество диапазона 100.0 %
     CRC копии 4CBE1DF5
     Копирование... OK
Ошибок не произошло
AccurateRip: сводка
Трек  1  нет в базе данных
Трек  2  нет в базе данных
Трек  3  нет в базе данных
Трек  4  нет в базе данных
Трек  5  нет в базе данных
Трек  6  нет в базе данных
Трек  7  нет в базе данных
Трек  8  нет в базе данных
Трек  9  нет в базе данных
Трек 10  нет в базе данных
Трек 11  нет в базе данных
Трек 12  нет в базе данных
Ни одного трека нет в базе AccurateRip
Конец отчёта

Отчёт auCDtect Task manager&#58;

-----------------------
DON'T MODIFY THIS FILE
-----------------------
PERFORMER: auCDtect Task Manager, ver. 1.6.0 RC1 build 1.6.0.1
Copyright (c) 2008-2010 y-soft. All rights reserved
http://y-soft.org
ANALYZER: auCDtect: CD records authenticity detector, version 0.8.2
Copyright (c) 2004 Oleg Berngardt. All rights reserved.
Copyright (c) 2004 Alexander Djourik. All rights reserved.
FILE: Boney M. - Nightflight To Venus.ape
  Size: 377700568 Hash: F7C8984E5D6E4C6462EEA914C226C09E Accuracy: -m0
  Conclusion: CDDA 100%
  Signature: 427020CC2ACE3B1D0133BE414E14AD34DF969699

Спектрограмма &amp; OBI&#58;

Thanks ManstrВремя раздачи: 19.00 - 23.00-
[Профиль] [ЛС]

Создавать темы 13-Авг-2015 10:41 (спустя 7 месяцев 19 дней)

Топик был перенесен из форума Зарубежная в форум Technopop, Eurodance, Disco
sergej644
 
Показать сообщения:    

Текущее время: Сегодня 07:14

Часовой пояс: GMT



Вы не можете начинать темы
Вы не можете отвечать на сообщения
Вы не можете редактировать свои сообщения
Вы не можете удалять свои сообщения
Вы не можете голосовать в опросах
Вы не можете прикреплять файлы к сообщениям
Вы не можете скачивать файлы