Boney M - Greatest Hits Of All Times Vol.2: Remix '89 (1989) [FLAC|Lossless]<Synth-pop, Disco>

 
Автор Сообщение

sergej644 ®

Пол:

Стаж: 4 года 11 месяцев

Сообщений: 6044

Откуда: Soviet Union



Награды: Нет

Торрент-статистика

Создавать темы 24-Дек-2014 23:15

[Цитировать]

-Boney M - Greatest Hits Of All Times Vol.2: Remix '89 (1989)- Год: 1989
Жанр: Synth-pop, Disco
Лейбл: Hansa, BMG Ariola Munchen GmbH
Каталог #: 260 330
Продолжительность: 00:50:18-Кодек: FLAC
Тип рипа: image + .cue
Битрейт: Lossless-Треклист:
01. Kalimba De luna (Lambada Mix-Long Version) (4:31)
02. Felicidad (Lambada Mix) (3:51)
03. Happy Song (French Kiss Remix) (4:22)
04. Malaika (Lambada Mix) (3:00)
05. Bahama Mama (2:59)
06. Children Of Paradise (3:08)
07. Mega Mix (Bonus-track: Rivers Of Babylon,Daddy Cool,Rasputin) (3:49)
08. Nightflight To Venus (3:27)
09. Belfast (3:26)
10. El Lute (4:29)
11. The Calendar Song (2:28)
12. My Cherie Amour (2:43)
13. Baby Do You Wanna Bump (3:37)
14. The Summer Mega Mix (Bonus-track: Sunny, Ma Baker, Hooray!Hooray! It's A Holi... (4:28)-

Отчёт ЕАС&#58;

Exact Audio Copy V1.0 beta 3 from 29. August 2011
Отчёт EAC об извлечении, выполненном 2. января 2014, 14:55
Boney M. / Greatest Hits Of All Times Vol.2 (Remix '89)
Дисковод: LITE-ON DVDRW LH-20A1S   Adapter: 2  ID: 0
Режим чтения                 : Достоверность
Использование точного потока : Да
Отключение кэша аудио        : Да
Использование указателей C2  : Нет
Коррекция смещения при чтении                     : 6
Способность читать области Lead-in и Lead-out     : Нет
Заполнение пропущенных сэмплов тишиной            : Да
Удаление блоков с тишиной в начале и конце        : Нет
При вычислениях CRC использовались нулевые сэмплы : Да
Интерфейс                                         : Установленный внешний ASPI-интерфейс
Выходной формат : Внутренние WAV-операции
Формат сэмплов  : 44.100 Гц; 16 бит; стерео
TOC извлечённого CD
     Трек |   Старт  | Длительность | Начальный сектор | Конечный сектор
    ---------------------------------------------------------------------
       1  |  0:00.33 |    4:30.57   |          33      |      20339
       2  |  4:31.15 |    3:50.63   |       20340      |      37652
       3  |  8:22.03 |    4:22.25   |       37653      |      57327
       4  | 12:44.28 |    3:00.02   |       57328      |      70829
       5  | 15:44.30 |    2:58.70   |       70830      |      84249
       6  | 18:43.25 |    3:07.70   |       84250      |      98344
       7  | 21:51.20 |    3:48.68   |       98345      |     115512
       8  | 25:40.13 |    3:26.40   |      115513      |     131002
       9  | 29:06.53 |    3:26.37   |      131003      |     146489
      10  | 32:33.15 |    4:28.65   |      146490      |     166654
      11  | 37:02.05 |    2:27.70   |      166655      |     177749
      12  | 39:30.00 |    2:43.18   |      177750      |     189992
      13  | 42:13.18 |    3:36.60   |      189993      |     206252
      14  | 45:50.03 |    4:28.30   |      206253      |     226382
Характеристики диапазона извлечения и сообщения об ошибках
Выбранный диапазон
     Имя файла Q:\Boney M\1989 - Greatest Hits Of All Times Vol.2\Boney M. - Greatest Hits Of All Times Vol.2 (Remix '89).wav
     Пиковый уровень 95.1 %
     Скорость извлечения 2.9 X
     Качество диапазона 100.0 %
     CRC теста E5ACBEF6
     CRC копии E5ACBEF6
     Копирование... OK
Ошибок не произошло
AccurateRip: сводка
Трек  1  : извлечено точно (доверие 13)  [A311FDA9]  (AR v2)
Трек  2  : извлечено точно (доверие 13)  [F2761331]  (AR v2)
Трек  3  : извлечено точно (доверие 13)  [AD29B693]  (AR v2)
Трек  4  : извлечено точно (доверие 13)  [C57EB25E]  (AR v2)
Трек  5  : извлечено точно (доверие 13)  [6E23E2AF]  (AR v2)
Трек  6  : извлечено точно (доверие 13)  [E36C493E]  (AR v2)
Трек  7  : извлечено точно (доверие 13)  [5F1600BF]  (AR v2)
Трек  8  : извлечено точно (доверие 13)  [0775CD16]  (AR v2)
Трек  9  : извлечено точно (доверие 13)  [6723E770]  (AR v2)
Трек 10  : извлечено точно (доверие 13)  [59CD5C6D]  (AR v2)
Трек 11  : извлечено точно (доверие 13)  [59036DF2]  (AR v2)
Трек 12  : извлечено точно (доверие 13)  [6F1AF31D]  (AR v2)
Трек 13  : извлечено точно (доверие 13)  [3C1079D2]  (AR v2)
Трек 14  : извлечено точно (доверие 13)  [E2C297ED]  (AR v2)
Все треки извлечены точно
Конец отчёта
==== Контрольная сумма отчёта 2C68E4E5D1A9C16360DD80EF80CE9D8F96B150CAA1CFAF1247BAFC5BB186C18B ====

Отчёт auCDtect Task manager&#58;

-----------------------
DON'T MODIFY THIS FILE
-----------------------
PERFORMER: auCDtect Task Manager, ver. 1.6.0 RC1 build 1.6.0.1
Copyright (c) 2008-2010 y-soft. All rights reserved
http://y-soft.org
ANALYZER: auCDtect: CD records authenticity detector, version 0.8.2
Copyright (c) 2004 Oleg Berngardt. All rights reserved.
Copyright (c) 2004 Alexander Djourik. All rights reserved.
FILE: Boney M. - Greatest Hits Of All Times Vol.2 (Remix '89).flac
  Size: 321221091 Hash: 2D4FCAECA060687B2F20B7F267071A1A Accuracy: -m0
  Conclusion: MPEG 95%
  Signature: 5DB091E488D37947BCC1D91E7D8B42C74A4489B1

Содержание индексной карты (.CUE&#41;

REM GENRE Disco
REM DATE 1989
REM DISCID B90BCA0E
REM COMMENT "ExactAudioCopy v1.0b3"
PERFORMER "Boney M."
TITLE "Greatest Hits Of All Times Vol.2 (Remix '89)"
FILE "Boney M. - Greatest Hits Of All Times Vol.2 (Remix '89).flac" WAVE
  TRACK 01 AUDIO
    TITLE "Kalimba De luna (Lambada Mix-Long Version)"
    PERFORMER "Boney M."
    INDEX 00 00:00:00
    INDEX 01 00:00:33
  TRACK 02 AUDIO
    TITLE "Felicidad (Lambada Mix)"
    PERFORMER "Boney M."
    INDEX 00 04:28:33
    INDEX 01 04:31:15
  TRACK 03 AUDIO
    TITLE "Happy Song (French Kiss Remix)"
    PERFORMER "Boney M."
    INDEX 00 08:21:45
    INDEX 01 08:22:03
  TRACK 04 AUDIO
    TITLE "Malaika (Lambada Mix)"
    PERFORMER "Boney M."
    INDEX 00 12:43:30
    INDEX 01 12:44:28
  TRACK 05 AUDIO
    TITLE "Bahama Mama"
    PERFORMER "Boney M."
    INDEX 00 15:43:43
    INDEX 01 15:44:30
  TRACK 06 AUDIO
    TITLE "Children Of Paradise"
    PERFORMER "Boney M."
    INDEX 00 18:43:13
    INDEX 01 18:43:25
  TRACK 07 AUDIO
    TITLE "Mega Mix (Bonus-track: Rivers Of Babylon,Daddy Cool,Rasputin)"
    PERFORMER "Boney M."
    INDEX 00 21:49:20
    INDEX 01 21:51:20
  TRACK 08 AUDIO
    TITLE "Nightflight To Venus"
    PERFORMER "Boney M."
    INDEX 00 25:37:23
    INDEX 01 25:40:13
  TRACK 09 AUDIO
    TITLE "Belfast"
    PERFORMER "Boney M."
    INDEX 00 29:06:00
    INDEX 01 29:06:53
  TRACK 10 AUDIO
    TITLE "El Lute"
    PERFORMER "Boney M."
    INDEX 01 32:33:15
  TRACK 11 AUDIO
    TITLE "The Calendar Song"
    PERFORMER "Boney M."
    INDEX 00 37:01:25
    INDEX 01 37:02:05
  TRACK 12 AUDIO
    TITLE "My Cherie Amour"
    PERFORMER "Boney M."
    INDEX 01 39:30:00
  TRACK 13 AUDIO
    TITLE "Baby Do You Wanna Bump"
    PERFORMER "Boney M."
    INDEX 00 42:12:58
    INDEX 01 42:13:18
  TRACK 14 AUDIO
    TITLE "The Summer Mega Mix (Bonus-track: Sunny, Ma Baker, Hooray!Hooray! It's A Holi..."
    PERFORMER "Boney M."
    INDEX 00 45:49:15
    INDEX 01 45:50:03

Сверка с АккуратРип

[CUETools log; Date: 29.01.2014 19:51:29; Version: 2.1.4]
Pregap length 00:00:33.
[CTDB TOCID: 9LVe1ty_GLNLEGdJjWxr0JwTO0o-] found.
Track | CTDB Status
  1   | (1/1) Accurately ripped
  2   | (1/1) Accurately ripped
  3   | (1/1) Accurately ripped
  4   | (1/1) Accurately ripped
  5   | (1/1) Accurately ripped
  6   | (1/1) Accurately ripped
  7   | (1/1) Accurately ripped
  8   | (1/1) Accurately ripped
  9   | (1/1) Accurately ripped
10   | (1/1) Accurately ripped
11   | (1/1) Accurately ripped
12   | (1/1) Accurately ripped
13   | (1/1) Accurately ripped
14   | (1/1) Accurately ripped
[AccurateRip ID: 001a6133-0115fdf1-b90bca0e] found.
Track   [  CRC   |   V2   ] Status
01     [f6487955|a311fda9] (11+13/24) Accurately ripped
02     [4a58793d|f2761331] (11+13/24) Accurately ripped
03     [2733191c|ad29b693] (11+13/24) Accurately ripped
04     [885fb11e|c57eb25e] (11+13/24) Accurately ripped
05     [acc1d71a|6e23e2af] (11+13/24) Accurately ripped
06     [bd88df51|e36c493e] (11+13/24) Accurately ripped
07     [3b60ca91|5f1600bf] (11+13/24) Accurately ripped
08     [5905ecaa|0775cd16] (11+13/24) Accurately ripped
09     [ecc1b154|6723e770] (11+13/24) Accurately ripped
10     [8ce96421|59cd5c6d] (11+13/24) Accurately ripped
11     [0f2e7050|59036df2] (11+13/24) Accurately ripped
12     [81859890|6f1af31d] (11+13/24) Accurately ripped
13     [05ff19a8|3c1079d2] (11+13/24) Accurately ripped
14     [89188ee6|e2c297ed] (11+13/24) Accurately ripped
Track Peak [ CRC32  ] [W/O NULL] [  LOG   ]
--   95,1 [E5ACBEF6] [A70B477C]   CRC32
01   75,6 [2B354F1C] [38F67960]
02   86,1 [EEBCDC59] [63828C83]
03   72,8 [49C977EC] [91EE516D]
04   83,2 [F8C492DC] [CD15D60B]
05   73,0 [B5F6BF40] [02B88EC3]
06   63,2 [C8A320C4] [FE34882F]
07   74,6 [BF48989E] [829B1ADB]
08   78,0 [B87D809A] [7932B6E4]
09   73,4 [8A1DAB52] [66E6B005]
10   74,6 [3A3839A7] [721E9B10]
11   95,1 [4752662C] [DD2ABD56]
12   73,4 [5AF659B1] [B82A184E]
13   76,6 [EAD7834F] [F45FBC9B]
14   76,7 [627C4B42] [C516E9A9]

Спектр

[Профиль] [ЛС]

Создавать темы 13-Авг-2015 10:41 (спустя 7 месяцев 19 дней)

Топик был перенесен из форума Зарубежная в форум Technopop, Eurodance, Disco
sergej644
 
Показать сообщения:    

Текущее время: Сегодня 14:28

Часовой пояс: GMT



Вы не можете начинать темы
Вы не можете отвечать на сообщения
Вы не можете редактировать свои сообщения
Вы не можете удалять свои сообщения
Вы не можете голосовать в опросах
Вы не можете прикреплять файлы к сообщениям
Вы не можете скачивать файлы