Boney M - Greatest Hits Of All Times: Remix '88 (1988) [FLAC|Lossless]<Synth-pop, Disco>

 
Автор Сообщение

sergej644 ®

Пол:

Стаж: 4 года 11 месяцев

Сообщений: 6040

Откуда: Soviet Union



Награды: Нет

Торрент-статистика

Создавать темы 24-Дек-2014 23:16

[Цитировать]

-Boney M - Greatest Hits Of All Times: Remix '88 (1988)- Год: 1988
Жанр: Synth-pop, Disco
Лейбл: Hansa, BMG Ariola Munchen GmbH
Каталог #: 259 426
Продолжительность: 00:48:56-Кодек: FLAC
Тип рипа: image + .cue
Битрейт: Lossless-Треклист:
01. Sunny (3:43)
02. Daddy Cool (3:33)
03. Rasputin (5:27)
04. Ma Baker (4:42)
05. Take The Heat Off Me (3:53)
06. Hooray! Hooray! It's A Holi-Holiday (3:23)
07. Rivers Of Babylon (3:44)
08. No Woman No Cry (3:36)
09. Brown Girl In The Ring (4:01)
10. Gotta Go Home (4:41)
11. Painter Man (3:49)
12. Mary's Boy Child - Oh, My Lord (4:23)-

Отчёт ЕАС&#58;

Exact Audio Copy V1.0 beta 3 from 29. August 2011
Отчёт EAC об извлечении, выполненном 2. января 2014, 13:41
Boney M / Greatest Hits Of All Times Remix
Дисковод: LITE-ON DVDRW LH-20A1S   Adapter: 2  ID: 0
Режим чтения                 : Достоверность
Использование точного потока : Да
Отключение кэша аудио        : Да
Использование указателей C2  : Нет
Коррекция смещения при чтении                     : 6
Способность читать области Lead-in и Lead-out     : Нет
Заполнение пропущенных сэмплов тишиной            : Да
Удаление блоков с тишиной в начале и конце        : Нет
При вычислениях CRC использовались нулевые сэмплы : Да
Интерфейс                                         : Установленный внешний ASPI-интерфейс
Выходной формат : Внутренние WAV-операции
Формат сэмплов  : 44.100 Гц; 16 бит; стерео
TOC извлечённого CD
     Трек |   Старт  | Длительность | Начальный сектор | Конечный сектор
    ---------------------------------------------------------------------
       1  |  0:00.00 |    3:43.00   |           0      |      16724
       2  |  3:43.00 |    3:33.27   |       16725      |      32726
       3  |  7:16.27 |    5:27.35   |       32727      |      57286
       4  | 12:43.62 |    4:42.05   |       57287      |      78441
       5  | 17:25.67 |    3:53.28   |       78442      |      95944
       6  | 21:19.20 |    3:23.22   |       95945      |     111191
       7  | 24:42.42 |    3:44.25   |      111192      |     128016
       8  | 28:26.67 |    3:36.13   |      128017      |     144229
       9  | 32:03.05 |    4:01.02   |      144230      |     162306
      10  | 36:04.07 |    4:40.43   |      162307      |     183349
      11  | 40:44.50 |    3:49.07   |      183350      |     200531
      12  | 44:33.57 |    4:22.53   |      200532      |     220234
Характеристики диапазона извлечения и сообщения об ошибках
Выбранный диапазон
     Имя файла Q:\Boney M\Boney M - Greatest Hits Of All Times Remix.wav
     Пиковый уровень 89.1 %
     Скорость извлечения 3.0 X
     Качество диапазона 100.0 %
     CRC теста B451B71C
     CRC копии B451B71C
     Копирование... OK
Ошибок не произошло
AccurateRip: сводка
Трек  1  : извлечено точно (доверие 29)  [540C05DE]  (AR v2)
Трек  2  : извлечено точно (доверие 28)  [59FE35C4]  (AR v2)
Трек  3  : извлечено точно (доверие 29)  [C476E276]  (AR v2)
Трек  4  : извлечено точно (доверие 29)  [9D4AE6A7]  (AR v2)
Трек  5  : извлечено точно (доверие 27)  [C0BDB8EA]  (AR v2)
Трек  6  : извлечено точно (доверие 29)  [323819B8]  (AR v2)
Трек  7  : извлечено точно (доверие 29)  [FCA00D0F]  (AR v2)
Трек  8  : извлечено точно (доверие 29)  [4C51A2C2]  (AR v2)
Трек  9  : извлечено точно (доверие 29)  [7578A8D6]  (AR v2)
Трек 10  : извлечено точно (доверие 29)  [63A5F807]  (AR v2)
Трек 11  : извлечено точно (доверие 27)  [91C8AC9A]  (AR v2)
Трек 12  : извлечено точно (доверие 28)  [58CB963D]  (AR v2)
Все треки извлечены точно
Конец отчёта
==== Контрольная сумма отчёта CE4D1A118BA3FBD0D3679AA60D8D8328BBD32FAF2AFA79C2E6BECD88F5778E14 ====

Отчёт auCDtect Task manager&#58;

-----------------------
DON'T MODIFY THIS FILE
-----------------------
PERFORMER: auCDtect Task Manager, ver. 1.6.0 RC1 build 1.6.0.1
Copyright (c) 2008-2010 y-soft. All rights reserved
http://y-soft.org
ANALYZER: auCDtect: CD records authenticity detector, version 0.8.2
Copyright (c) 2004 Oleg Berngardt. All rights reserved.
Copyright (c) 2004 Alexander Djourik. All rights reserved.
FILE: Boney M. - Greatest Hits Of All Times Remix.flac
  Size: 324639197 Hash: CF309A98F939F5395269B12E2BFE561E Accuracy: -m0
  Conclusion: MPEG 95%
  Signature: 98921F7F4795F7432D4A36634F284F4D7E42419E

Содержание индексной карты (.CUE&#41;

REM GENRE Disco
REM DATE 1988
REM DISCID A90B780C
REM COMMENT "ExactAudioCopy v1.0b3"
PERFORMER "Boney M."
TITLE "Greatest Hits Of All Times Remix"
FILE "Boney M. - Greatest Hits Of All Times Remix.flac" WAVE
  TRACK 01 AUDIO
    TITLE "Sunny"
    PERFORMER "Boney M."
    INDEX 01 00:00:00
  TRACK 02 AUDIO
    TITLE "Daddy Cool"
    PERFORMER "Boney M."
    INDEX 00 03:42:72
    INDEX 01 03:43:00
  TRACK 03 AUDIO
    TITLE "Rasputin"
    PERFORMER "Boney M."
    INDEX 00 07:15:70
    INDEX 01 07:16:27
  TRACK 04 AUDIO
    TITLE "Ma Baker"
    PERFORMER "Boney M."
    INDEX 00 12:43:60
    INDEX 01 12:43:62
  TRACK 05 AUDIO
    TITLE "Take The Heat Off Me"
    PERFORMER "Boney M."
    INDEX 00 17:25:35
    INDEX 01 17:25:67
  TRACK 06 AUDIO
    TITLE "Hooray! Hooray! It's A Holi-Holiday"
    PERFORMER "Boney M."
    INDEX 00 21:18:65
    INDEX 01 21:19:20
  TRACK 07 AUDIO
    TITLE "Rivers Of Babylon"
    PERFORMER "Boney M."
    INDEX 00 24:40:32
    INDEX 01 24:42:42
  TRACK 08 AUDIO
    TITLE "No Woman No Cry"
    PERFORMER "Boney M."
    INDEX 00 28:26:30
    INDEX 01 28:26:67
  TRACK 09 AUDIO
    TITLE "Brown Girl In The Ring"
    PERFORMER "Boney M."
    INDEX 00 32:02:42
    INDEX 01 32:03:05
  TRACK 10 AUDIO
    TITLE "Gotta Go Home"
    PERFORMER "Boney M."
    INDEX 00 36:04:05
    INDEX 01 36:04:07
  TRACK 11 AUDIO
    TITLE "Painter Man"
    PERFORMER "Boney M."
    INDEX 00 40:44:05
    INDEX 01 40:44:50
  TRACK 12 AUDIO
    TITLE "Mary's Boy Child - Oh, My Lord"
    PERFORMER "Boney M."
    INDEX 00 44:33:35
    INDEX 01 44:33:57

Сверка с АккуратРип

[CUETools log; Date: 29.01.2014 19:38:11; Version: 2.1.4]
[CTDB TOCID: LZ6sJtXURTi1eYr2mCneDBOmnVk-] found.
Track | CTDB Status
  1   | (18/18) Accurately ripped
  2   | (18/18) Accurately ripped
  3   | (18/18) Accurately ripped
  4   | (18/18) Accurately ripped
  5   | (17/18) Accurately ripped
  6   | (18/18) Accurately ripped
  7   | (18/18) Accurately ripped
  8   | (17/18) Accurately ripped
  9   | (18/18) Accurately ripped
10   | (18/18) Accurately ripped
11   | (18/18) Accurately ripped
12   | (18/18) Accurately ripped
[AccurateRip ID: 0015d5cd-00cb87c9-a90b780c] found.
Track   [  CRC   |   V2   ] Status
01     [da15b123|540c05de] (30+29/73) Accurately ripped
02     [caaae252|59fe35c4] (30+28/72) Accurately ripped
03     [8e000e47|c476e276] (30+29/73) Accurately ripped
04     [73cf9db0|9d4ae6a7] (30+29/73) Accurately ripped
05     [6b8b66ea|c0bdb8ea] (30+27/71) Accurately ripped
06     [62ce7177|323819b8] (30+29/73) Accurately ripped
07     [d2f8576d|fca00d0f] (30+29/73) Accurately ripped
08     [5ae0ff77|4c51a2c2] (30+29/73) Accurately ripped
09     [2c0bb334|7578a8d6] (30+29/73) Accurately ripped
10     [9fc9a2d8|63a5f807] (30+29/73) Accurately ripped
11     [a9096a27|91c8ac9a] (29+27/70) Accurately ripped
12     [6bd64843|58cb963d] (29+28/71) Accurately ripped
Offsetted by -2144:
01     [9a2486cf] (03/73) Accurately ripped
02     [d730f0fd] (03/72) Accurately ripped
03     [11af47a2] (03/73) Accurately ripped
04     [30f37fca] (03/73) Accurately ripped
05     [536bb4bd] (03/71) Accurately ripped
06     [2c2dc7b1] (03/73) Accurately ripped
07     [cd185c9b] (03/73) Accurately ripped
08     [d4f0fc88] (03/73) Accurately ripped
09     [3808bb41] (03/73) Accurately ripped
10     [ed05c66f] (03/73) Accurately ripped
11     [dc3ce9a3] (03/70) Accurately ripped
12     [32226dcc] (03/71) Accurately ripped
Offsetted by -861:
01     [80830402] (04/73) Accurately ripped
02     [79ed7f81] (04/72) Accurately ripped
03     [680f0693] (04/73) Accurately ripped
04     [4d44b45f] (04/73) Accurately ripped
05     [55c778db] (04/71) Accurately ripped
06     [3a700a89] (04/73) Accurately ripped
07     [d3f4a2f4] (04/73) Accurately ripped
08     [c1102935] (04/73) Accurately ripped
09     [59fde27e] (04/73) Accurately ripped
10     [8958382c] (04/73) Accurately ripped
11     [30951a2d] (04/70) Accurately ripped
12     [5a7310ca] (04/71) Accurately ripped
Track Peak [ CRC32  ] [W/O NULL] [  LOG   ]
--   89,1 [B451B71C] [24973BF6]   CRC32
01   89,1 [5807F3A1] [9730E52A]
02   75,7 [B662CBBC] [73E105F7]
03   85,5 [42863BA0] [6799E4BB]
04   83,4 [CBDDED88] [8FDE1A79]
05   72,8 [C89BE195] [EAB1357A]
06   84,3 [7D01FCD9] [E51A5456]
07   75,5 [F8C67A86] [2542C17C]
08   64,4 [479A6989] [F16A6D9B]
09   68,5 [650E1B40] [6EE03CB0]
10   76,6 [D9D6798D] [9B8EA351]
11   66,1 [9DDA57B8] [A1261482]
12   68,0 [E85228B9] [EAACC292]

Спектр

[Профиль] [ЛС]

Создавать темы 13-Авг-2015 10:41 (спустя 7 месяцев 19 дней)

Топик был перенесен из форума Зарубежная в форум Technopop, Eurodance, Disco
sergej644
 
Показать сообщения:    

Текущее время: Сегодня 22:41

Часовой пояс: GMT



Вы не можете начинать темы
Вы не можете отвечать на сообщения
Вы не можете редактировать свои сообщения
Вы не можете удалять свои сообщения
Вы не можете голосовать в опросах
Вы не можете прикреплять файлы к сообщениям
Вы не можете скачивать файлы