Boney M. Diamonds (2015) 3xDVD9

 
Автор Сообщение

sergej644 ®

Пол:

Стаж: 4 года 11 месяцев

Сообщений: 6043

Откуда: Soviet Union



Награды: Нет

Торрент-статистика

Создавать темы 12-Июн-2015 22:06

[Цитировать]

--Boney M. Diamonds

Оригинальное название: Boney M. Diamonds
Год выхода: 2015
Жанр: Disco-Страна: Германия
Студия: Sony Music Entertainment Germany GmbH
Продолжительность: 443 мин. / 07:23
Перевод: не требуется

В феврале 2015 года исполнилось ровно 40 лет с момента публикации первого сингла проекта Boney M. В связи с юбилеем рекорд-компания Фрэнка Фариана MCI и Sony Music 27 марта 2015 выпустили беспрецедентное издание группы под маркой Diamonds. Релиз поступил в продажу в трёх различных версиях: 3CD Box, 3DVD Box и Fan Box (LP+3CD+DVD+футболка+наклейки). Специальное подарочное 3-х-дисковое издание содержит все хиты группы, расположенные в хронологическом порядке + редкие альтернативные и неизданные версии песен. Юбилейная 3DVD-компиляция Diamonds представляет собрание редчайших видеозаписей группы, сделанных различными телекомпаниями мира. В новое издание вошло 3 "живых" концерта Boney M., отснятых в столице Ирландии Дублине (1978), на польском фестивале Sopot '79 (1979) и в южноафриканской столице развлечений Сан-Сити (1984), а также большое количество невыпущенного ранее материала от телекомпаний BBC, ZDF, WDR и других.

Треклист

Boney M.: Diamonds I
Boney M. In Germany
01. Baby, Do You Wanna Bump
02. Daddy Cool
03. Sunny
04. Rasputin
05. Brown Girl In The Ring
06. Rivers Of Babylon
07. El Lute
08. Calendar Song (January, February, March...)
09. Gotta Go Home
10. Bahama Mama
11. Children Of Paradise
12. Mary's Boy Child
13. Felicidad (Margherita)
14. Consuela Biaz
15. Little Drummer Boy
16. The Carnival Is Over
17. Zion's Daughter
18. Jambo - Hakuna Matata (No Problems)
19. Somewhere In The World
20. My Cherie Amour
21. Young, Free And Single
22. Stories
Boney M. In The UK
01. Daddy Cool
02. Belfast
03. Mary's Boy Child / Oh My Lord
04. Rasputin
05. I'm Born Again
06. Hit-Medley
(Hooray! Hooray! It's A Holi-Holiday / Brown Girl In The Ring / Mary's Boy Child / Rivers Of Babylon)
Music Videos
01. The Summer Megamix, 1989
02. Jambo - Hakuna Matata (No Problems), 1983
03. Mary's Boy Child / Oh My Lord, 1978
04. Stories, 1990
05. Boney M. 2000 - Hooray! Hooray! (Caribbean Night Fever), 1999
Boney M.: Diamonds II
Boney M. In Dublin, Ireland 1978
01. Painter Man
02. Never Change Lovers In The Middle Of The Night
03. When I Need You
04. Medley: Love For Sale / Baby, Do You Wanna Bamp / Daddy Cool / Sunny
05. Big Spender
06. Rasputin
07. Belfast
08. Heart Of Gold
09. King Of The Road
10. Mary's Boy Child / Oh My Lord
11. Ma Baker
12. Rivers Of Babylon
13. Brown Girl In The Ring
Boney M. At Sopot Festival, Poland 1979
01. Rivers Of Babylon
02. Daddy Cool
03. Ma Baker
04. Brown Girl In The Ring
05. Sunny
06. Hooray! Hooray! It's A Holi-Holiday
07. Dancing In The Streets
08. Belfast
09. El Lute
10. Rasputin
11. Gotta Go Home
Boney M.: Diamonds III
Boney M. In Sun City, South Africa 1984
01. Boonoonoonoos
02. Hit-Medley: cDaddy Cool / Sunny / Ma Baker / Belfast
03. Rasputin
04. Introduction
05. Never Change Lovers In The Middle Of The Night
06. We Kill The World (Don't Kill The World)
07. Exodus
08. 10.000 Lightyears I
09. Where Did You Go
10. I Feel Good
11. Somewhere In The World
12. Many Rivers To Cross
13. Barbarella Fortuneteller
14. Drum Solo
15. Tambourine Solo (Antonio Gusto)
16. Medley: Hooray! Hooray! It's A Holi-Holiday / Calendar Song (January, February, March...) / I Shall Sing / Boonoonoonoos
17. Malaika
18. Still I'm Sad
19. Jimmy
20. Going Back West
21. Brown Girl In The Ring
22. No Woman No Cry
23. Rivers Of Babylon
Boney M. On Stage, Germany 1986
01. No Woman No Cry
02. Brown Girl In The Ring
03. Daddy Cool
04. Sunny
05. Ma Baker
06. Painter Man
07. Gotta Go Home
08. Rasputin
09. Rivers Of Babylon
10. Still I'm Sad
11. El Lute
12. Kalimba De Luna
13. Felicidad (Margherita)
14. Happy Song
15. Dreadlock Holiday
-Файл
Кодек: MPEG2
Качество: 3xDVD9
Видео: NTSC 4:3 (720x480@720x540) VBR 5312 Kbps, 29.970 fps
Аудио: LPCM 2 ch, 48.0 KHz, 1536 Kbps
Субтитры: отсутствуют

MediaInfo

Общее
Полное имя                               : D:Boney M.Diamonds.2015DVD 1VIDEO_TSVTS_01_1.VOB
Формат                                   : MPEG-PS
Размер файла                             : 1024 Мбайт
Продолжительность                        : 20 м.
Режим общего битрейта                    : Переменный
Общий поток                              : 6987 Кбит/сек
Видео
Идентификатор                            : 224 (0xE0)
Формат                                   : MPEG Video
Версия формата                           : Version 2
Профиль формата                          : Main@Main
Параметр BVOP формата                    : Да
Параметр матрицы формата                 : По умолчанию
Параметр GOP формата                     : M=3, N=12
Структура изображения                    : Frame
Продолжительность                        : 20 м.
Вид битрейта                             : Переменный
Битрейт                                  : 5312 Кбит/сек
Максимальный битрейт                     : 7300 Кбит/сек
Ширина                                   : 720 пикселей
Высота                                   : 480 пикселей
Соотношение сторон                       : 4:3
Частота кадров                           : 29,970 кадров/сек
Стандарт вещания                         : NTSC
Цветовое пространство                    : YUV
Субдискретизация насыщенности            : 4:2:0
Битовая глубина                          : 8 бит
Тип развёртки                            : Чересстрочная
Порядок развёртки                        : Верхнее поле первое
Метод сжатия                             : С потерями
Бит/(Пиксели*Кадры)                      : 0.513
Временной код первого кадра              : 00:00:00:00
Оригинал временного кода                 : Group of pictures header
GOP, открыто/закрыто                     : Закрыто
Размер потока                            : 779 Мбайт (76%)
Аудио
Идентификатор                            : 189 (0xBD)-160 (0xA0)
Формат                                   : PCM
Параметр Endianness формата              : Big
Параметр Sign формата                    : Signed
Режим смешивания                         : DVD-Video
Продолжительность                        : 20 м.
Вид битрейта                             : Постоянный
Битрейт                                  : 1536 Кбит/сек
Каналы                                   : 2 канала
Частота                                  : 48,0 КГц
Битовая глубина                          : 16 бит
Размер потока                            : 225 Мбайт (22%)
Меню
-

Скриншоты

[Профиль] [ЛС]
Кто просматривает тему:

Показать сообщения:    

Текущее время: Сегодня 02:26

Часовой пояс: GMT



Вы не можете начинать темы
Вы не можете отвечать на сообщения
Вы не можете редактировать свои сообщения
Вы не можете удалять свои сообщения
Вы не можете голосовать в опросах
Вы не можете прикреплять файлы к сообщениям
Вы не можете скачивать файлы