(Hard Rock)Bon Jovi - New Jersey 1988 / 2014, 2 SHM-CD Super Deluxe Box Set Universal Music Japan, 2014, FLAC,(Image+*cue),Lossless

 
Автор Сообщение

sergej644 ®

Пол:

Стаж: 4 года 11 месяцев

Сообщений: 6038

Откуда: Soviet Union



Награды: Нет

Торрент-статистика

Создавать темы 17-Авг-2014 17:10

[Цитировать]

-Bon Jovi - New Jersey 1988 / 2014- Год издания: 2014
Страна-производитель диска: Japan
Издатель: Mercury Records / UMe / Universal Music Japan
Формат издания: 2 SHM-CD + DVD Super Deluxe Box Set
Каталог Box: UICY-76434
Каталог SHM-CDs/DVD: UICX-75113~4 / UIBX-75032
Страна: США
Жанр: Hard Rock
Продолжительность: 02:18:31
Кодек: FLAC
Битрейт: Lossless
Тип рипа: image +.cue +.log
Наличие сканов: format PNG 600dpi/300dpi (booklets), full scans--Трек лист:-

CD 1

Продолжительность: 01:10:53
Трек лист:
01. Lay Your Hands On Me
02. Bad Medicine
03. Born To Be My Baby
04. Living In Sin
05. Blood On Blood
06. Homebound Train
07. Wild Is The Wind
08. Ride Cowboy Ride
09. Stick To Your Guns
10. I'll Be There For You
11. 99 In The Shade
12. Love For Sale
Bonus Tracks:
13. The Boys Are Back In Town (UK 12'' Single B-Side)
14. Love Is War ('Living In Sin' Single B-Side)
15. Born To Be My Baby (Acoustic Version / Japanese Single B-Side)

Отчёт ЕАС:

Exact Audio Copy V1.0 beta 3 from 29. August 2011
EAC extraction logfile from 11. August 2014, 19:14
Bon Jovi / New Jersey SHM-CD 1
Used drive  : PLEXTOR BD-R  PX-B950SA   Adapter: 6  ID: 0
Read mode               : Secure
Utilize accurate stream : Yes
Defeat audio cache      : Yes
Make use of C2 pointers : No
Read offset correction                      : 6
Overread into Lead-In and Lead-Out          : No
Fill up missing offset samples with silence : Yes
Delete leading and trailing silent blocks   : No
Null samples used in CRC calculations       : Yes
Used interface                              : Native Win32 interface for Win NT & 2000
Used output format : Internal WAV Routines
Sample format      : 44.100 Hz; 16 Bit; Stereo
TOC of the extracted CD
     Track |   Start  |  Length  | Start sector | End sector
    ---------------------------------------------------------
        1  |  0:00.00 |  5:58.57 |         0    |    26906
        2  |  5:58.57 |  5:16.53 |     26907    |    50659
        3  | 11:15.35 |  4:40.08 |     50660    |    71667
        4  | 15:55.43 |  4:39.04 |     71668    |    92596
        5  | 20:34.47 |  6:16.54 |     92597    |   120850
        6  | 26:51.26 |  5:10.50 |    120851    |   144150
        7  | 32:02.01 |  5:08.73 |    144151    |   167323
        8  | 37:10.74 |  1:24.71 |    167324    |   173694
        9  | 38:35.70 |  4:45.30 |    173695    |   195099
       10  | 43:21.25 |  5:46.44 |    195100    |   221093
       11  | 49:07.69 |  4:29.67 |    221094    |   241335
       12  | 53:37.61 |  4:01.59 |    241336    |   259469
       13  | 57:39.45 |  4:05.14 |    259470    |   277858
       14  | 61:44.59 |  4:14.52 |    277859    |   296960
       15  | 65:59.36 |  4:53.48 |    296961    |   318983
Range status and errors
Selected range
     Filename C:\Users\Meijin\Desktop\Lossless Galaxy ALLexxess\Bon Jovi\1988 New Jersey (2SHM-CD + DVD Box Set Universal Japan 2014)\SHM-CD 1\Bon Jovi - New Jersey SHM-CD 1.wav
     Peak level 99.4 %
     Extraction speed 8.4 X
     Range quality 100.0 %
     Test CRC E5909675
     Copy CRC E5909675
     Copy OK
No errors occurred
AccurateRip summary
Track  1  accurately ripped (confidence 3)  [5CA9AE6C]  (AR v2)
Track  2  accurately ripped (confidence 3)  [B958DE8C]  (AR v2)
Track  3  accurately ripped (confidence 3)  [80F5EFF4]  (AR v2)
Track  4  accurately ripped (confidence 3)  [B8F59625]  (AR v2)
Track  5  accurately ripped (confidence 3)  [8454774B]  (AR v2)
Track  6  accurately ripped (confidence 3)  [4D442B01]  (AR v2)
Track  7  accurately ripped (confidence 3)  [8B652C56]  (AR v2)
Track  8  accurately ripped (confidence 3)  [14A48353]  (AR v2)
Track  9  accurately ripped (confidence 3)  [52E77157]  (AR v2)
Track 10  accurately ripped (confidence 3)  [F4FC6C55]  (AR v2)
Track 11  accurately ripped (confidence 3)  [2C3793BD]  (AR v2)
Track 12  accurately ripped (confidence 3)  [50567896]  (AR v2)
Track 13  accurately ripped (confidence 3)  [F4819E9C]  (AR v2)
Track 14  accurately ripped (confidence 3)  [7B9C06B3]  (AR v2)
Track 15  accurately ripped (confidence 3)  [560ACEF5]  (AR v2)
All tracks accurately ripped
End of status report
==== Log checksum 4AF8C0512CA9C99903BBEFE5712C315B05858EE1DB9CCB38DA50EBD5E90FD414 ====

Отчёт auCDtect Task manager:

-----------------------
DON'T MODIFY THIS FILE
-----------------------
PERFORMER: auCDtect Task Manager, ver. 1.6.0 RC1 build 1.6.0.1
Copyright (c) 2008-2010 y-soft. All rights reserved
http://y-soft.org
ANALYZER: auCDtect: CD records authenticity detector, version 0.8.2
Copyright (c) 2004 Oleg Berngardt. All rights reserved.
Copyright (c) 2004 Alexander Djourik. All rights reserved.
FILE: Bon Jovi - New Jersey SHM-CD 1.wav
  Size: 750250412 Hash: D38E45BA358AC3CA453846F063B63A7B Accuracy: -m8
  Conclusion: CDDA 100%
  Signature: B2026B872AD9409BDBC8F0F2948B2A0E1D010FB6
FILE: Bon Jovi - New Jersey SHM-CD 1.flac
  Size: 526054240 Hash: D38E45BA358AC3CA453846F063B63A7B Accuracy: -m8
  Conclusion: CDDA 100%
  Signature: 8B4D2FAAFE9E3A615A15D625D48DEDE5EBCF5DC9

CD 2

Продолжительность: 01:07:38
Трек лист:
01. Homebound Train
02. Judgment Day
03. Full Moon High
04. Growin' Up The Hard Way
05. Let's Make It Baby
06. Love Hurts
07. Backdoor To Heaven
08. Now And Forever
09. Wild Is The Wind
10. Stick To Your Guns
11. House Of Fire
12. Does Anybody Really Fall In Love Anymore?
13. Diamond Ring

Отчёт ЕАС:

Exact Audio Copy V1.0 beta 3 from 29. August 2011
EAC extraction logfile from 11. August 2014, 18:39
Bon Jovi / New Jersey SHM-CD 2
Used drive  : PLEXTOR BD-R  PX-B950SA   Adapter: 6  ID: 0
Read mode               : Secure
Utilize accurate stream : Yes
Defeat audio cache      : Yes
Make use of C2 pointers : No
Read offset correction                      : 6
Overread into Lead-In and Lead-Out          : No
Fill up missing offset samples with silence : Yes
Delete leading and trailing silent blocks   : No
Null samples used in CRC calculations       : Yes
Used interface                              : Native Win32 interface for Win NT & 2000
Used output format : Internal WAV Routines
Sample format      : 44.100 Hz; 16 Bit; Stereo
TOC of the extracted CD
     Track |   Start  |  Length  | Start sector | End sector
    ---------------------------------------------------------
        1  |  0:00.00 |  6:32.40 |         0    |    29439
        2  |  6:32.40 |  4:18.35 |     29440    |    48824
        3  | 10:51.00 |  4:42.37 |     48825    |    70011
        4  | 15:33.37 |  5:31.73 |     70012    |    94909
        5  | 21:05.35 |  5:56.18 |     94910    |   121627
        6  | 27:01.53 |  4:49.37 |    121628    |   143339
        7  | 31:51.15 |  5:51.15 |    143340    |   169679
        8  | 37:42.30 |  5:34.09 |    169680    |   194738
        9  | 43:16.39 |  4:55.44 |    194739    |   216907
       10  | 48:12.08 |  5:15.27 |    216908    |   240559
       11  | 53:27.35 |  5:01.64 |    240560    |   263198
       12  | 58:29.24 |  4:57.52 |    263199    |   285525
       13  | 63:27.01 |  4:10.50 |    285526    |   304325
Range status and errors
Selected range
     Filename C:\Users\Meijin\Desktop\Lossless Galaxy ALLexxess\Bon Jovi\1988 New Jersey (2SHM-CD + DVD Box Set Universal Japan 2014)\SHM-CD 2\Bon Jovi - New Jersey SHM-CD 2.wav
     Peak level 99.4 %
     Extraction speed 8.0 X
     Range quality 99.9 %
     Test CRC 72379898
     Copy CRC 72379898
     Copy OK
No errors occurred
AccurateRip summary
Track  1  accurately ripped (confidence 2)  [2A6DB6DF]  (AR v2)
Track  2  accurately ripped (confidence 2)  [227C2EBB]  (AR v2)
Track  3  accurately ripped (confidence 2)  [7FD99249]  (AR v2)
Track  4  accurately ripped (confidence 2)  [4657741C]  (AR v2)
Track  5  accurately ripped (confidence 2)  [02EBED4D]  (AR v2)
Track  6  accurately ripped (confidence 2)  [8D3A2827]  (AR v2)
Track  7  accurately ripped (confidence 2)  [B98E7D5D]  (AR v2)
Track  8  accurately ripped (confidence 2)  [9A9EB4B3]  (AR v2)
Track  9  accurately ripped (confidence 2)  [14EBCE78]  (AR v2)
Track 10  accurately ripped (confidence 2)  [41DFB287]  (AR v2)
Track 11  accurately ripped (confidence 2)  [2D93B167]  (AR v2)
Track 12  accurately ripped (confidence 2)  [503D6519]  (AR v2)
Track 13  accurately ripped (confidence 1)  [945B06BF]  (AR v2)
All tracks accurately ripped
End of status report
==== Log checksum 3435BEAE65B0EFF6DB4ED1196B604B427D89131F35BD24939BAA08CB797FDF2E ====

Отчёт auCDtect Task manager:

-----------------------
DON'T MODIFY THIS FILE
-----------------------
PERFORMER: auCDtect Task Manager, ver. 1.6.0 RC1 build 1.6.0.1
Copyright (c) 2008-2010 y-soft. All rights reserved
http://y-soft.org
ANALYZER: auCDtect: CD records authenticity detector, version 0.8.2
Copyright (c) 2004 Oleg Berngardt. All rights reserved.
Copyright (c) 2004 Alexander Djourik. All rights reserved.
FILE: Bon Jovi - New Jersey SHM-CD 2.wav
  Size: 715774796 Hash: 958B254324EAD470C1BEB8C2BCCED443 Accuracy: -m8
  Conclusion: CDDA 99%
  Signature: D54BEE32C400B5820D4BB2E316745F1CAD6160BF
FILE: Bon Jovi - New Jersey SHM-CD 2.flac
  Size: 485636461 Hash: 958B254324EAD470C1BEB8C2BCCED443 Accuracy: -m8
  Conclusion: CDDA 99%
  Signature: 4202513B58235BE8575DD5B502F212B9A6AE2025
Время раздачи: 09:00-21:00 до 5 скачавших.
[Профиль] [ЛС]
Показать сообщения:    

Текущее время: Сегодня 20:01

Часовой пояс: GMT



Вы не можете начинать темы
Вы не можете отвечать на сообщения
Вы не можете редактировать свои сообщения
Вы не можете удалять свои сообщения
Вы не можете голосовать в опросах
Вы не можете прикреплять файлы к сообщениям
Вы не можете скачивать файлы