(Hard Rock) Bon Jovi - Burning Bridges - 2015 [FLAC, image+.cue, lossless]

 
Автор Сообщение

sergej644 ®

Пол:

Стаж: 4 года 11 месяцев

Сообщений: 6035

Откуда: Soviet Union



Награды: Нет

Торрент-статистика

Создавать темы 23-Авг-2015 20:16

[Цитировать]

-Bon Jovi / Burning Bridges-- Год издания: 2015
Страна: USA
Жанр: Hard Rock
Продолжительность: 00:40:28-Лейбл издания: Mercury Records
Страна-выпуска диска: Netherlands
Номер по каталогу: 0602547508591
Формат: FLAC
Битрейт аудио: lossless
Тип рипа: image+.cue
Наличие сканов в содержимом раздачи: да
-

Трэклист

01 A Teardrop To The Sea (05:08)
02 We Don't Run (03:18)
03 Saturday Night Gave Me Sunday Morning (03:24)
04 We All Fall Down (04:06)
05 Blind Love (04:49)
06 Who Would You Die For (03:56)
07 Fingerprints (05:59)
08 Life Is Beautiful (03:24)
09 I'm Your Man (03:45)
10 Burning Bridges (02:45)

Лог создания рипа

Exact Audio Copy V1.0 beta 6 from 9. April 2015
EAC extraction logfile from 22. August 2015, 10:17
Bon Jovi / Burning Bridges
Used drive  : hp      CDDVDW SH-216DB   Adapter: 1  ID: 0
Read mode               : Secure
Utilize accurate stream : Yes
Defeat audio cache      : Yes
Make use of C2 pointers : No
Read offset correction                      : 6
Overread into Lead-In and Lead-Out          : No
Fill up missing offset samples with silence : Yes
Delete leading and trailing silent blocks   : No
Null samples used in CRC calculations       : Yes
Used interface                              : Native Win32 interface for Win NT & 2000
Used output format : Internal WAV Routines
Sample format      : 44.100 Hz; 16 Bit; Stereo
TOC of the extracted CD
     Track |   Start  |  Length  | Start sector | End sector
    ---------------------------------------------------------
        1  |  0:00.00 |  5:07.56 |         0    |    23080
        2  |  5:07.56 |  3:17.37 |     23081    |    37892
        3  |  8:25.18 |  3:23.30 |     37893    |    53147
        4  | 11:48.48 |  4:05.38 |     53148    |    71560
        5  | 15:54.11 |  4:48.16 |     71561    |    93176
        6  | 20:42.27 |  3:55.06 |     93177    |   110807
        7  | 24:37.33 |  5:58.31 |    110808    |   137688
        8  | 30:35.64 |  3:23.08 |    137689    |   152921
        9  | 33:58.72 |  3:44.56 |    152922    |   169777
       10  | 37:43.53 |  2:44.21 |    169778    |   182098
Range status and errors
Selected range
     Filename E:\POST\Post Nieuw\Bon Jovi - Burning Bridges (EAC)\Bon Jovi - Burning Bridges.wav
     Peak level 100.0 %
     Extraction speed 6.5 X
     Range quality 100.0 %
     Test CRC 01AA8303
     Copy CRC 01AA8303
     Copy OK
No errors occurred
AccurateRip summary
Track  1  not present in database
Track  2  not present in database
Track  3  not present in database
Track  4  not present in database
Track  5  not present in database
Track  6  not present in database
Track  7  not present in database
Track  8  not present in database
Track  9  not present in database
Track 10  not present in database
None of the tracks are present in the AccurateRip database
End of status report

Индексная карта (non-compilant .cue)

REM GENRE Rock
REM DATE 2015
REM DISCID 7E097B0A
REM COMMENT "ExactAudioCopy v1.0b6"
PERFORMER "Bon Jovi"
TITLE "Burning Bridges"
FILE "Bon Jovi - Burning Bridges.flac" WAVE
  TRACK 01 AUDIO
    TITLE "A Teardrop To The Sea"
    PERFORMER "Bon Jovi"
    INDEX 01 00:00:00
  TRACK 02 AUDIO
    TITLE "We Don't Run"
    PERFORMER "Bon Jovi"
    INDEX 01 05:07:56
  TRACK 03 AUDIO
    TITLE "Saturday Night Gave Me Sunday Morning"
    PERFORMER "Bon Jovi"
    INDEX 01 08:25:18
  TRACK 04 AUDIO
    TITLE "We All Fall Down"
    PERFORMER "Bon Jovi"
    INDEX 01 11:48:48
  TRACK 05 AUDIO
    TITLE "Blind Love"
    PERFORMER "Bon Jovi"
    INDEX 01 15:54:11
  TRACK 06 AUDIO
    TITLE "Who Would You Die For"
    PERFORMER "Bon Jovi"
    INDEX 01 20:42:27
  TRACK 07 AUDIO
    TITLE "Fingerprints"
    PERFORMER "Bon Jovi"
    INDEX 01 24:37:33
  TRACK 08 AUDIO
    TITLE "Life Is Beautiful"
    PERFORMER "Bon Jovi"
    INDEX 01 30:35:64
  TRACK 09 AUDIO
    TITLE "I'm Your Man"
    PERFORMER "Bon Jovi"
    INDEX 01 33:58:72
  TRACK 10 AUDIO
    TITLE "Burning Bridges"
    PERFORMER "Bon Jovi"
    INDEX 01 37:43:53

Лог auCDtect Task Manager

-----------------------
DON'T MODIFY THIS FILE
-----------------------
PERFORMER: auCDtect Task Manager, ver. 1.5.1RC6 build 1.5.1.7
Copyright (c) 2008-2010 y-soft. All rights reserved
http://y-soft.org
ANALYZER: auCDtect: CD records authenticity detector, version 0.8.2
Copyright (c) 2004 Oleg Berngardt. All rights reserved.
Copyright (c) 2004 Alexander Djourik. All rights reserved.
FILE: 01. A Teardrop To The Sea.flac
  Size: 35254651 Hash: D5A3CB5085FA51F225DF8570095F16F0 Accuracy: -m8
  Conclusion: CDDA 100%
  Signature: 3801C9EE847319CA8095074D086D553A755FFBD5
FILE: 02. We Don't Run.flac
  Size: 26290505 Hash: 2EC4454537BB54DFB68DD4D9D2408247 Accuracy: -m8
  Conclusion: CDDA 100%
  Signature: 9C8E3A9719EC1A9EEB213370F7DCEC990D7A231B
FILE: 03. Saturday Night Gave Me Sunday Morning.flac
  Size: 26531060 Hash: 7191A22E14AC7B2C84376D596C5119E1 Accuracy: -m8
  Conclusion: CDDA 100%
  Signature: 6C1D7F6BC15E097E1535804A9896402088DB549C
FILE: 04. We All Fall Down.flac
  Size: 31227022 Hash: 0583AF6FE2BFD9908AB7834F1F459E42 Accuracy: -m8
  Conclusion: CDDA 100%
  Signature: C5897EFDC4DA66BB9741DE6B2D82A92BF3035DDA
FILE: 05. Blind Love.flac
  Size: 29587978 Hash: 11DA085BF56825D95D3D1033F4924B53 Accuracy: -m8
  Conclusion: CDDA 100%
  Signature: C4311927E1BA81F3A82EE91E7C3267627188797B
FILE: 06. Who Would You Die For.flac
  Size: 25206814 Hash: 3461F3CB0DC4E2F5013B015542226CEC Accuracy: -m8
  Conclusion: CDDA 100%
  Signature: 8D34B3550C78E9DDBD1C5844FFB14B9318B9CA39
FILE: 07. Fingerprints.flac
  Size: 46343046 Hash: DA68735FF529EF9C78FD8BC46E6CABFD Accuracy: -m8
  Conclusion: CDDA 100%
  Signature: 2ACFD81DC6FBF3EA1465C40132A9E0D1763575B8
FILE: 08. Life Is Beautiful.flac
  Size: 25376709 Hash: 0CDB67A22E9353B0CF4F764662904B52 Accuracy: -m8
  Conclusion: CDDA 100%
  Signature: C61524BD871E0803BDBF7D4DA49C31D0D6375D08
FILE: 09. I'm Your Man.flac
  Size: 30037638 Hash: 9FC6AD02E10991C56A2F42EEE2DDC534 Accuracy: -m8
  Conclusion: CDDA 100%
  Signature: 66C671C5188770A67A71DDC3BFF0409783035A70
FILE: 10. Burning Bridges.flac
  Size: 21225856 Hash: 54AC1059D2108F7441A6A3D5A3149863 Accuracy: -m8
  Conclusion: CDDA 100%
  Signature: EF2C39324D42C5D4773BBF84FAC3213AC392487A
--Не забываем говорить
[Профиль] [ЛС]
Показать сообщения:    

Текущее время: Сегодня 02:45

Часовой пояс: GMT



Вы не можете начинать темы
Вы не можете отвечать на сообщения
Вы не можете редактировать свои сообщения
Вы не можете удалять свои сообщения
Вы не можете голосовать в опросах
Вы не можете прикреплять файлы к сообщениям
Вы не можете скачивать файлы