Bombers - Bombers (1978) [FLAC|Lossless]<Disco>

 
Автор Сообщение

sergej644 ®

Пол:

Стаж: 4 года 11 месяцев

Сообщений: 6042

Откуда: Soviet Union



Награды: Нет

Торрент-статистика

Создавать темы 24-Дек-2014 23:08

[Цитировать]

-Bombers - Bombers (1978)-- Год: 1978
Жанр: Disco
Лейбл: Unidisc (Canada)
Каталог#: UBK-4084
Продолжительность: 00:53:32
Кодек: FLAC
Битрейт: Lossless
Тип рипа: image+.cue
Наличие сканов: да
Треклист:
01. Don't stop the Music (06:32)
02. Dance Dance Dance (05:57)
03. Supermax (06:31)
04. The Mexican (12:00)
05. Main Man (03:48)
06. Dance Dance Dance (12' Version - Special Disco Mix) (06:07)
07. The Mexican (12' Version - Special Disco Mix) (12:34)
--

Отчёт ЕАС&#58;

Exact Audio Copy V0.99 prebeta 4 from 23. January 2008
EAC extraction logfile from 12. January 2009, 17:23
Bombers / Bombers
Used drive  : TSSTcorpCDDVDW SH-S203B   Adapter: 6  ID: 0
Read mode               : Secure
Utilize accurate stream : Yes
Defeat audio cache      : Yes
Make use of C2 pointers : No
Read offset correction                      : 6
Overread into Lead-In and Lead-Out          : No
Fill up missing offset samples with silence : Yes
Delete leading and trailing silent blocks   : No
Null samples used in CRC calculations       : Yes
Used interface                              : Installed external ASPI interface
Used output format              : User Defined Encoder
Selected bitrate                : 1024 kBit/s
Quality                         : High
Add ID3 tag                     : No
Command line compressor         : C:\Program Files\FLAC\flac.exe
Additional command line options :  -8 -V -T "ARTIST=%a" -T "TITLE=%t" -T "ALBUM=%g" -T "DATE=%y" -T "TRACKNUMBER=%n" -T "GENRE=%m" -T "COMMENT=%e" %s -o %d
TOC of the extracted CD
     Track |   Start  |  Length  | Start sector | End sector
    ---------------------------------------------------------
        1  |  0:00.00 |  6:32.50 |         0    |    29449
        2  |  6:32.50 |  5:57.12 |     29450    |    56236
        3  | 12:29.62 |  6:31.53 |     56237    |    85614
        4  | 19:01.40 | 12:00.47 |     85615    |   139661
        5  | 31:02.12 |  3:48.33 |    139662    |   156794
        6  | 34:50.45 |  6:07.22 |    156795    |   184341
        7  | 40:57.67 | 12:34.13 |    184342    |   240904
Range status and errors
Selected range
     Filename C:\uTorrent\CD\Bombers - Bombers\Bombers - Bombers.wav
     Peak level 100.0 %
     Range quality 99.9 %
     Copy CRC 826A1BF1
     Copy OK
No errors occurred
AccurateRip summary
Track  1  cannot be verified as accurate (confidence 2)  [78C17140], AccurateRip returned [854F6DA0]
Track  2  cannot be verified as accurate (confidence 2)  [FB6396B1], AccurateRip returned [53F0AD1D]
Track  3  cannot be verified as accurate (confidence 2)  [73783F5C], AccurateRip returned [BDF00A44]
Track  4  cannot be verified as accurate (confidence 2)  [EF3A9638], AccurateRip returned [190C6004]
Track  5  cannot be verified as accurate (confidence 2)  [70B8024D], AccurateRip returned [558C22B5]
Track  6  cannot be verified as accurate (confidence 2)  [7469269A], AccurateRip returned [18F6B54E]
Track  7  cannot be verified as accurate (confidence 2)  [1419C9CA], AccurateRip returned [17181792]
No tracks could be verified as accurate
You may have a different pressing from the one(s) in the database
End of status report

Отчёт auCDtect Task manager&#58;

-----------------------
DON'T MODIFY THIS FILE
-----------------------
PERFORMER: auCDtect Task Manager, ver. 1.6.0 RC1 build 1.6.0.1
Copyright (c) 2008-2010 y-soft. All rights reserved
http://y-soft.org
ANALYZER: auCDtect: CD records authenticity detector, version 0.8.2
Copyright (c) 2004 Oleg Berngardt. All rights reserved.
Copyright (c) 2004 Alexander Djourik. All rights reserved.
FILE: Bombers - Bombers.flac
  Size: 382583080 Hash: D02870118FBFF15EFCB1B67AAB8C96AA Accuracy: -m0
  Conclusion: CDDA 100%
  Signature: AF622F1B8ADF10517982B92800A5852F864DEAC6

Содержание индексной карты .Cue&#58;

REM GENRE Disco
REM DATE 1978
REM DISCID 5C0C8C07
REM COMMENT "ExactAudioCopy v0.99pb4"
PERFORMER "Bombers"
TITLE "Bombers"
FILE "Bombers - Bombers.flac" WAVE
  TRACK 01 AUDIO
    TITLE "Don't stop the Music"
    PERFORMER "Bombers"
    INDEX 01 00:00:00
  TRACK 02 AUDIO
    TITLE "Dance Dance Dance"
    PERFORMER "Bombers"
    INDEX 00 06:30:06
    INDEX 01 06:32:50
  TRACK 03 AUDIO
    TITLE "Supermax"
    PERFORMER "Bombers"
    INDEX 00 12:27:20
    INDEX 01 12:29:62
  TRACK 04 AUDIO
    TITLE "The Mexican"
    PERFORMER "Bombers"
    INDEX 00 18:58:70
    INDEX 01 19:01:40
  TRACK 05 AUDIO
    TITLE "Main Man"
    PERFORMER "Bombers"
    INDEX 00 30:59:45
    INDEX 01 31:02:12
  TRACK 06 AUDIO
    TITLE "Dance Dance Dance (12' Version)"
    PERFORMER "Bombers"
    INDEX 00 34:48:02
    INDEX 01 34:50:45
  TRACK 07 AUDIO
    TITLE "The Mexican (12' Version)"
    PERFORMER "Bombers"
    INDEX 00 40:55:22
    INDEX 01 40:57:67
[Профиль] [ЛС]

Создавать темы 13-Авг-2015 10:41 (спустя 7 месяцев 19 дней)

Топик был перенесен из форума Зарубежная в форум Technopop, Eurodance, Disco
sergej644
 
Кто просматривает тему:

Показать сообщения:    

Текущее время: Сегодня 16:23

Часовой пояс: GMT



Вы не можете начинать темы
Вы не можете отвечать на сообщения
Вы не можете редактировать свои сообщения
Вы не можете удалять свои сообщения
Вы не можете голосовать в опросах
Вы не можете прикреплять файлы к сообщениям
Вы не можете скачивать файлы