Boйнa мupoв Z в 3Д / Wоrld Wаr Z 3D (Марк Форстер / Marc Forster) [2013, Ужасы, Фантастика, Боевик, BDrip, 1080p] OverUnder / Вертикальная стереопара

 
Автор Сообщение

TorrentFilm ®

Пол:

Стаж: 1 год 11 месяцев

Сообщений: 7741



Награды: Нет

Торрент-статистика

Создавать темы 02-Янв-2016 00:06

[Цитировать]

Война миров Z / World War Z
Год выпуска: 2013
Страна: США
Студия: Paramount Pictures, Plan B Entertainment, Skydance Productions, Hemisphere Media Capital, GK Films
Жанр: Ужасы, Фантастика, Боевик
Продолжительность: 01:56:01
Перевод: Профессиональный (дублированный)
Русские субтитры: нет
Режиссер на русском: Марк Форстер
Режиссер на английском: Marc Forster
В ролях: Брэд Питт, Мирей Инос, Стерлинг Джеринс, Эбигейл Харгров, Даниэла Картес, Фана Мокоэна, Пьерфранческо Фавино, Питер Капальди, Мориц Бляйбтрой, Рут Негга
Роли озвучивали: Юрий Деркач, Екатерина Семенова, Василиса Эльдарова, Никита Прозоровский, Даниил Эльдаров
Описание: Сотрудник ООН Джерри Лэйн наперегонки со временем пытается остановить заражение, способное полностью истребить человечество.
Сэмпл: http://www.sendspace.com/file/anxzfk
Качество: BDrip
Контейнер: MKV
Формат 3D: OverUnder / Вертикальная стереопара
Порядок ракурсов: левый ракурс первый
Видео кодек: x264
Аудио кодек: DTS
Видео: AVC / High@L5.0 / 23,976 fps / 1920х1600 / 16,7 Мбит/сек
Аудио: Русский / DTS / 48 KHz / 5.1 ch / 1510 Кбит/сек
Аудио 2: Английский / AC3 / 48 KHz / 5.1 ch / 640 Кбит/сек
Релиз группы: ВНИМАНИЕ ! На встроенных ТВ-плееерах работать не будет!!!
Железные плееры на которых воспроизводятся полные стереопары:Popcorn C-200 , Dune HD Smart D1 , Dune HD DUO , Dune HD Smart H1 , Dune HD Smart B1 , Dune HD Max , Dune HD TV-303D , Dune HD Base 3D

MediaInfo

Общее
Уникальный идентификатор : 231348049851644483415675511231544420071 (0xAE0C03806EEFAAC6A6F69290B4F9E6E7)
Полное имя : E:\закачки\Wоrld Wаr Z.Rip by SeRoGa00.mkv
Формат : Matroska
Версия формата : Version 2
Размер файла : 16,2 Гбайт
Продолжительность : 1 ч. 56 м.
Режим общего битрейта : Переменный
Общий поток : 20,0 Мбит/сек
Дата кодирования : UTC 2013-09-17 15:36:43
Программа кодирования : mkvmerge v3.4.0 ('Rapunzel') сборка от May 15 2010 09:38:20
Библиотека кодирования : libebml v0.8.0 + libmatroska v0.9.0
Видео
Идентификатор : 1
Формат : AVC
Формат/Информация : Advanced Video Codec
Профиль формата : High@L5.0
Параметр CABAC формата : Да
Параметр ReFrames формата : 4 кадра
Идентификатор кодека : V_MPEG4/ISO/AVC
Продолжительность : 1 ч. 56 м.
Битрейт : 16,7 Мбит/сек
Ширина : 1920 пикселей
Высота : 1600 пикселей
Соотношение сторон : 1,200
Частота кадров : 23,976 кадра/сек
Цветовое пространство : YUV
Субдискретизация насыщенности : 4:2:0
Битовая глубина : 8 бит
Тип развёртки : Прогрессивная
Бит/(Пиксели*Кадры) : 0.227
Размер потока : 13,5 Гбайт (83%)
Заголовок : Rip by SeRoGa00
Библиотека кодирования : x264 core 128 r2216kMod 198a7ea
Настройки программы : cabac=1 / ref=4 / deblock=1:-3:-3 / analyse=0x3:0x113 / me=umh / subme=9 / psy=1 / fade_compensate=0.00 / psy_rd=1.00:0.15 / mixed_ref=1 / me_range=16 / chroma_me=1 / trellis=2 / 8x8dct=1 / cqm=0 / deadzone=21,11 / fast_pskip=1 / chroma_qp_offset=-3 / threads=9 / lookahead_threads=1 / sliced_threads=0 / nr=0 / decimate=1 / interlaced=0 / bluray_compat=0 / constrained_intra=0 / bframes=6 / b_pyramid=2 / b_adapt=2 / b_bias=0 / direct=3 / weightb=1 / open_gop=0 / weightp=2 / keyint=250 / keyint_min=23 / scenecut=40 / intra_refresh=0 / rc_lookahead=60 / rc=crf / mbtree=1 / crf=18.0000 / qcomp=0.60 / qpmin=10 / qpmax=69 / qpstep=4 / vbv_maxrate=40000 / vbv_bufsize=40000 / crf_max=0.0 / nal_hrd=none / ip_ratio=1.40 / aq=1:1.00
Язык : English
Аудио #1
Идентификатор : 2
Формат : DTS
Формат/Информация : Digital Theater Systems
Профиль формата : MA / Core
Идентификатор кодека : A_DTS
Продолжительность : 1 ч. 56 м.
Вид битрейта : Переменный
Битрейт : 2269 Кбит/сек / 1510 Кбит/сек
Каналы : 6 каналов
Расположение каналов : Front: L C R, Side: L R, LFE
Частота : 48,0 КГц
Битовая глубина : 24 бит
Метод сжатия : Без потерь / Lossy
Язык : Russian
Аудио #2
Идентификатор : 3
Формат : AC-3
Формат/Информация : Audio Coding 3
Расширение режима : CM (complete main)
Идентификатор кодека : A_AC3
Продолжительность : 1 ч. 56 м.
Вид битрейта : Постоянный
Битрейт : 640 Кбит/сек
Каналы : 6 каналов
Расположение каналов : Front: L C R, Side: L R, LFE
Частота : 48,0 КГц
Битовая глубина : 16 бит
Метод сжатия : С потерями
Размер потока : 531 Мбайт (3%)
Язык : English

Скриншоты


[Профиль] [ЛС]
Показать сообщения:    

Текущее время: Сегодня 05:01

Часовой пояс: GMT



Вы не можете начинать темы
Вы не можете отвечать на сообщения
Вы не можете редактировать свои сообщения
Вы не можете удалять свои сообщения
Вы не можете голосовать в опросах
Вы не можете прикреплять файлы к сообщениям
Вы не можете скачивать файлы