(Blues Rock / Pop Rock) Joe Cocker - Greatest Hits - 1998, FLAC (image+.cue), lossless

 
Автор Сообщение

sergej644 ®

Пол:

Стаж: 4 года 11 месяцев

Сообщений: 6046

Откуда: Soviet Union



Награды: Нет

Торрент-статистика

Создавать темы 01-Ноя-2014 11:33

[Цитировать]

Joe Cocker / Greatest HitsЖанр: Blues Rock / Pop Rock
Страна-производитель диска: England
Год издания: 1998
Издатель (лейбл): EMI
Номер по каталогу: 7243 4 97719 2 5-Аудиокодек: FLAC (*.flac)
Тип рипа: image+.cue
Битрейт аудио: lossless
Продолжительность: 01:17:22-Источник (релизер): BolshoeR
Наличие сканов в содержимом раздачи: да (*.png; 600 dpi)--Треклист:
01. Summer In The City (3:48)
02. Could You Be Loved (4:12)
03. The Simple Things (4:47)
04. N'oubliez Jamais (4:40)
05. Have A Little Faith In Me (4:15)
06. What Becomes Of The Broken Hearted (4:10)
07. Don't Let Me Be Misunderstood (3:53)
08. Delta Lady (3:17)
09. You Are So Beautiful (2:44)
10. That's All I Need To Know (Live) Duet with Eros Ramazotti (4:01)
11. Let The Healing Begin (4:16)
12. Tonight (4:46)
13. Night Calls (3:26)
14. Don't You Love Me Anymore (5:09)
15. When The Night Comes (4:44)
16. You Can Leave Your Hat On (4:13)
17. Unchain My Heart (5:04)
18. With A Little Help From My Friends (Live) (5:56)--

Лог создания рипа

Exact Audio Copy V0.99 prebeta 5 from 4. May 2009
Отчёт EAC об извлечении, выполненном 16. декабря 2012, 12:33
Joe Cocker / Greatest Hits
Дисковод: PIONEER DVD-RW  DVR-218L   Adapter: 0  ID: 0
Режим чтения                 : Достоверность
Использование точного потока : Да
Отключение кэша аудио        : Да
Использование указателей C2  : Нет
Коррекция смещения при чтении                     : 6
Способность читать области Lead-in и Lead-out     : Нет
Заполнение пропущенных сэмплов тишиной            : Да
Удаление блоков с тишиной в начале и конце        : Нет
При вычислениях CRC использовались нулевые сэмплы : Да
Интерфейс                                         : Встроенный Win32-интерфейс для Win NT/2000
Выходной формат          : Пользовательский кодировщик
Выбранный битрейт        : 128 kBit/s
Качество                 : Высокий
Добавление ID3-тэга      : Нет
Утилита сжатия           : C:\Program Files (x86)\Exact Audio Copy\Flac\flac.exe
Дополнительные параметры : -5 -V -T "ARTIST=%a" -T "TITLE=%t" -T "ALBUM=%g" -T "DATE=%y" -T "TRACKNUMBER=%n" -T "GENRE=%m" -T "COMMENT=EAC FLAC -5" %s
TOC извлечённого CD
     Трек |   Старт  | Длительность | Начальный сектор | Конечный сектор
    ---------------------------------------------------------------------
       1  |  0:00.00 |    3:48.25   |           0      |      17124
       2  |  3:48.25 |    4:12.17   |       17125      |      36041
       3  |  8:00.42 |    4:46.50   |       36042      |      57541
       4  | 12:47.17 |    4:40.18   |       57542      |      78559
       5  | 17:27.35 |    4:15.37   |       78560      |      97721
       6  | 21:42.72 |    4:10.20   |       97722      |     116491
       7  | 25:53.17 |    3:53.03   |      116492      |     133969
       8  | 29:46.20 |    3:17.17   |      133970      |     148761
       9  | 33:03.37 |    2:44.25   |      148762      |     161086
      10  | 35:47.62 |    4:00.38   |      161087      |     179124
      11  | 39:48.25 |    4:15.60   |      179125      |     198309
      12  | 44:04.10 |    4:45.67   |      198310      |     219751
      13  | 48:50.02 |    3:26.10   |      219752      |     235211
      14  | 52:16.12 |    5:08.58   |      235212      |     258369
      15  | 57:24.70 |    4:44.30   |      258370      |     279699
      16  | 62:09.25 |    4:12.60   |      279700      |     298659
      17  | 66:22.10 |    5:03.55   |      298660      |     321439
      18  | 71:25.65 |    5:56.15   |      321440      |     348154
Характеристики диапазона извлечения и сообщения об ошибках
Выбранный диапазон
     Имя файла F:\_МУЗЫКА\Joe Cocker - Greatest Hits (1998)\1998 - Joe Cocker - Greatest Hits.wav
     Пиковый уровень 99.2 %
     Качество диапазона 100.0 %
     CRC теста 6D0F7D23
     CRC копии 6D0F7D23
     Копирование... OK
Ошибок не произошло
AccurateRip: сводка
Трек  1  точное извлечение (доверие 12)  [5715CB1E]
Трек  2  точное извлечение (доверие 12)  [156E2F28]
Трек  3  точное извлечение (доверие 12)  [3067669A]
Трек  4  точное извлечение (доверие 12)  [A2F7F03C]
Трек  5  точное извлечение (доверие 12)  [E9A34674]
Трек  6  точное извлечение (доверие 12)  [8CB5E42F]
Трек  7  точное извлечение (доверие 12)  [FF03D399]
Трек  8  точное извлечение (доверие 12)  [7E02C0FF]
Трек  9  точное извлечение (доверие 12)  [95A51967]
Трек 10  точное извлечение (доверие 12)  [1FA43131]
Трек 11  точное извлечение (доверие 12)  [757EF43D]
Трек 12  точное извлечение (доверие 12)  [8896E2D6]
Трек 13  точное извлечение (доверие 12)  [BD625E5A]
Трек 14  точное извлечение (доверие 11)  [AB399F80]
Трек 15  точное извлечение (доверие 12)  [813A34AE]
Трек 16  точное извлечение (доверие 12)  [7FDFCB18]
Трек 17  точное извлечение (доверие 12)  [3E7177A1]
Трек 18  точное извлечение (доверие 11)  [CEB499A4]
Все треки извлечены точно
Конец отчёта

Содержание индексной карты (.CUE)

REM GENRE Blues
REM DATE 1998
REM DISCID 1C122212
REM COMMENT "ExactAudioCopy v0.99pb5"
CATALOG 0724349771925
PERFORMER "Joe Cocker"
TITLE "Greatest Hits"
FILE "1998 - Joe Cocker - Greatest Hits.flac" WAVE
  TRACK 01 AUDIO
    TITLE "Summer In The City"
    PERFORMER "Joe Cocker"
    ISRC H2:329800782
    INDEX 01 00:00:00
  TRACK 02 AUDIO
    TITLE "Could You Be Loved"
    PERFORMER "Joe Cocker"
    ISRC <cH[29800958
    INDEX 01 03:48:25
  TRACK 03 AUDIO
    TITLE "The Simple Things"
    PERFORMER "Joe Cocker"
    ISRC H2:329400144
    INDEX 01 08:00:42
  TRACK 04 AUDIO
    TITLE "N'oubliez Jamais"
    PERFORMER "Joe Cocker"
    ISRC <cH[29701472
    INDEX 00 12:46:10
    INDEX 01 12:47:17
  TRACK 05 AUDIO
    TITLE "Have A Little Faith In Me"
    PERFORMER "Joe Cocker"
    ISRC H2:329400141
    INDEX 01 17:27:35
  TRACK 06 AUDIO
    TITLE "What Becomes Of The Broken Hearted"
    PERFORMER "Joe Cocker"
    ISRC <cH[29800874
    INDEX 00 21:42:42
    INDEX 01 21:42:72
  TRACK 07 AUDIO
    TITLE "Don't Let Me Be Misunderstood"
    PERFORMER "Joe Cocker"
    ISRC H2:329600418
    INDEX 00 25:52:37
    INDEX 01 25:53:17
  TRACK 08 AUDIO
    TITLE "Delta Lady"
    PERFORMER "Joe Cocker"
    ISRC H2:329600418
    INDEX 01 29:46:20
  TRACK 09 AUDIO
    TITLE "You Are So Beautiful"
    PERFORMER "Joe Cocker"
    ISRC H2:329600508
    INDEX 00 33:02:02
    INDEX 01 33:03:37
  TRACK 10 AUDIO
    TITLE "That's All I Need To Know (Live) Duet with Eros Ramazotti"
    PERFORMER "Joe Cocker"
    ISRC @Ra@09800271
    INDEX 00 35:47:07
    INDEX 01 35:47:62
  TRACK 11 AUDIO
    TITLE "Let The Healing Begin"
    PERFORMER "Joe Cocker"
    ISRC H2:329800769
    INDEX 00 39:47:42
    INDEX 01 39:48:25
  TRACK 12 AUDIO
    TITLE "Tonight"
    PERFORMER "Joe Cocker"
    ISRC <cH[29700991
    INDEX 00 44:03:72
    INDEX 01 44:04:10
  TRACK 13 AUDIO
    TITLE "Night Calls"
    PERFORMER "Joe Cocker"
    ISRC H2:329100161
    INDEX 00 48:49:67
    INDEX 01 48:50:02
  TRACK 14 AUDIO
    TITLE "Don't You Love Me Anymore"
    PERFORMER "Joe Cocker"
    ISRC H2:329800770
    INDEX 00 52:15:32
    INDEX 01 52:16:12
  TRACK 15 AUDIO
    TITLE "When The Night Comes"
    PERFORMER "Joe Cocker"
    ISRC H2:329800770
    INDEX 01 57:24:70
  TRACK 16 AUDIO
    TITLE "You Can Leave Your Hat On"
    PERFORMER "Joe Cocker"
    ISRC H2:329800771
    INDEX 01 62:09:25
  TRACK 17 AUDIO
    TITLE "Unchain My Heart"
    PERFORMER "Joe Cocker"
    ISRC H2:328800001
    INDEX 00 66:21:55
    INDEX 01 66:22:10
  TRACK 18 AUDIO
    TITLE "With A Little Help From My Friends (Live)"
    PERFORMER "Joe Cocker"
    ISRC H2:329800773
    INDEX 00 71:25:20
    INDEX 01 71:25:65
--
[Профиль] [ЛС]
Показать сообщения:    

Текущее время: Сегодня 10:17

Часовой пояс: GMT



Вы не можете начинать темы
Вы не можете отвечать на сообщения
Вы не можете редактировать свои сообщения
Вы не можете удалять свои сообщения
Вы не можете голосовать в опросах
Вы не можете прикреплять файлы к сообщениям
Вы не можете скачивать файлы