(Power Metal, Speed Metal, Progressive Metal) Blind Guardian - A Traveler's Guide To Space And Time (15CD Box Set) - 2013, FLAC (image + .cue), lossless

 
Автор Сообщение

sergej644 ®

Пол:

Стаж: 4 года 11 месяцев

Сообщений: 6036

Откуда: Soviet Union



Награды: Нет

Торрент-статистика

Создавать темы 01-Июл-2014 08:36

[Цитировать]

-Blind Guardian - A Traveler's Guide To Space And Time (15CD Box Set)
Страна: Germany
Жанр: Power Metal, Speed Metal, Progressive Metal
Год издания диска: 2013
Страна-производитель диска: EU
Издатель (лейбл): Virgin Music/EMI Music Germany GmbH & Co. KG
Номер по каталогу: 50999 725338 2 6
Формат: FLAC (image + .cue)
Битрейт аудио: lossless
Продолжительность: 13:55:04
- -

Blind Guardian - 2013 - (15CD Box Set)

1988 - Battalions Of Fear (00:39:30)

- 01. Majesty (07:31)
02. Guardian Of The Blind (05:13)
03. Trial By The Archon (01:44)
04. Wizard's Crown (03:50)
05. Run For The Night (03:36)
06. The Martyr (06:17)
07. Battalions Of Fear (06:08)
08. By The Gates Of Moria (02:54)
09. Gandalf's Rebirth (02:12)

лог создания рипа

Exact Audio Copy V1.0 beta 3 from 29. August 2011
EAC extraction logfile from 4. April 2013, 20:07
Blind Guardian / Battalions Of Fear
Used drive  : PLEXTOR BD-R  PX-B950SA   Adapter: 6  ID: 0
Read mode               : Secure
Utilize accurate stream : Yes
Defeat audio cache      : Yes
Make use of C2 pointers : No
Read offset correction                      : 6
Overread into Lead-In and Lead-Out          : No
Fill up missing offset samples with silence : Yes
Delete leading and trailing silent blocks   : No
Null samples used in CRC calculations       : Yes
Used interface                              : Native Win32 interface for Win NT & 2000
Used output format : Internal WAV Routines
Sample format      : 44.100 Hz; 16 Bit; Stereo
TOC of the extracted CD
     Track |   Start  |  Length  | Start sector | End sector
    ---------------------------------------------------------
        1  |  0:00.00 |  7:31.74 |         0    |    33898
        2  |  7:31.74 |  5:13.30 |     33899    |    57403
        3  | 12:45.29 |  1:44.60 |     57404    |    65263
        4  | 14:30.14 |  3:50.74 |     65264    |    82587
        5  | 18:21.13 |  3:36.27 |     82588    |    98814
        6  | 21:57.40 |  6:17.49 |     98815    |   127138
        7  | 28:15.14 |  6:08.70 |    127139    |   154808
        8  | 34:24.09 |  2:54.16 |    154809    |   167874
        9  | 37:18.25 |  2:12.22 |    167875    |   177796
Range status and errors
Selected range
     Filename C:\Users\Meijin\Desktop\Lossless Galaxy ALLexxess\Blind Guardian\2013 A Traveler's Guide To Space And Time (15CD Box Set EMI Music Germany)\1988 Battalions Of Fear\Blind Guardian - Battalions Of Fear.wav
     Peak level 98.8 %
     Extraction speed 6.7 X
     Range quality 100.0 %
     Test CRC B6A3ABB8
     Copy CRC B6A3ABB8
     Copy OK
No errors occurred
AccurateRip summary
Track  1  accurately ripped (confidence 1)  [CA67DCA9]  (AR v2)
Track  2  accurately ripped (confidence 1)  [2A7AA290]  (AR v2)
Track  3  accurately ripped (confidence 1)  [5C0904B5]  (AR v2)
Track  4  accurately ripped (confidence 1)  [997A5DE0]  (AR v2)
Track  5  accurately ripped (confidence 1)  [882B5DF0]  (AR v2)
Track  6  accurately ripped (confidence 1)  [1C807D94]  (AR v2)
Track  7  accurately ripped (confidence 1)  [D5AAABBC]  (AR v2)
Track  8  accurately ripped (confidence 1)  [697CA7EE]  (AR v2)
Track  9  accurately ripped (confidence 1)  [08908C40]  (AR v2)
All tracks accurately ripped
End of status report

содержание индексной карты *cue

REM GENRE Metal
REM DATE 1988
REM DISCID 73094209
REM COMMENT "ExactAudioCopy v1.0b3"
PERFORMER "Blind Guardian"
TITLE "Battalions Of Fear"
FILE "Blind Guardian - Battalions Of Fear.flac" WAVE
  TRACK 01 AUDIO
    TITLE "Majesty"
    PERFORMER "Blind Guardian"
    FLAGS DCP
    INDEX 01 00:00:00
  TRACK 02 AUDIO
    TITLE "Guardian Of The Blind"
    PERFORMER "Blind Guardian"
    FLAGS DCP
    INDEX 00 07:30:00
    INDEX 01 07:31:74
  TRACK 03 AUDIO
    TITLE "Trial By The Archon"
    PERFORMER "Blind Guardian"
    FLAGS DCP
    INDEX 00 12:43:30
    INDEX 01 12:45:29
  TRACK 04 AUDIO
    TITLE "Wizard's Crown"
    PERFORMER "Blind Guardian"
    FLAGS DCP
    INDEX 01 14:30:14
  TRACK 05 AUDIO
    TITLE "Run For The Night"
    PERFORMER "Blind Guardian"
    FLAGS DCP
    INDEX 00 18:19:14
    INDEX 01 18:21:13
  TRACK 06 AUDIO
    TITLE "The Martyr"
    PERFORMER "Blind Guardian"
    FLAGS DCP
    INDEX 00 21:55:41
    INDEX 01 21:57:40
  TRACK 07 AUDIO
    TITLE "Battalions Of Fear"
    PERFORMER "Blind Guardian"
    FLAGS DCP
    INDEX 00 28:13:15
    INDEX 01 28:15:14
  TRACK 08 AUDIO
    TITLE "By The Gates Of Moria"
    PERFORMER "Blind Guardian"
    FLAGS DCP
    INDEX 00 34:22:10
    INDEX 01 34:24:09
  TRACK 09 AUDIO
    TITLE "Gandalf's Rebirth"
    PERFORMER "Blind Guardian"
    FLAGS DCP
    INDEX 00 37:16:26
    INDEX 01 37:18:25

1989 - Follow The Blind (00:43:17)

- 01. Inquisition (00:41)
02. Banish From Sanctuary (05:30)
03. Damned For All Time (05:00)
04. Follow The Blind (07:11)
05. Hall Of The King (04:18)
06. Fast To Madness (06:01)
07. Beyond The Ice (03:30)
08. Valhalla (04:57)
09. Don't Break The Circle (04:22)
10. Barbara Ann (01:42)

лог создания рипа

Exact Audio Copy V1.0 beta 3 from 29. August 2011
EAC extraction logfile from 4. April 2013, 19:39
Blind Guardian / Follow The Blind
Used drive  : PLEXTOR BD-R  PX-B950SA   Adapter: 6  ID: 0
Read mode               : Secure
Utilize accurate stream : Yes
Defeat audio cache      : Yes
Make use of C2 pointers : No
Read offset correction                      : 6
Overread into Lead-In and Lead-Out          : No
Fill up missing offset samples with silence : Yes
Delete leading and trailing silent blocks   : No
Null samples used in CRC calculations       : Yes
Used interface                              : Native Win32 interface for Win NT & 2000
Used output format : Internal WAV Routines
Sample format      : 44.100 Hz; 16 Bit; Stereo
TOC of the extracted CD
     Track |   Start  |  Length  | Start sector | End sector
    ---------------------------------------------------------
        1  |  0:00.00 |  0:41.35 |         0    |     3109
        2  |  0:41.35 |  5:30.42 |      3110    |    27901
        3  |  6:12.02 |  5:00.19 |     27902    |    50420
        4  | 11:12.21 |  7:11.62 |     50421    |    82807
        5  | 18:24.08 |  4:18.55 |     82808    |   102212
        6  | 22:42.63 |  6:01.01 |    102213    |   129288
        7  | 28:43.64 |  3:30.29 |    129289    |   145067
        8  | 32:14.18 |  4:57.56 |    145068    |   167398
        9  | 37:11.74 |  4:22.38 |    167399    |   187086
       10  | 41:34.37 |  1:42.48 |    187087    |   194784
Range status and errors
Selected range
     Filename C:\Users\Meijin\Desktop\Lossless Galaxy ALLexxess\Blind Guardian\2013 A Traveler's Guide To Space And Time (15CD Box Set EMI Music Germany)\1989 Follow The Blind\Blind Guardian - Follow The Blind.wav
     Peak level 98.8 %
     Extraction speed 6.9 X
     Range quality 100.0 %
     Test CRC 36C95816
     Copy CRC 36C95816
     Copy OK
No errors occurred
AccurateRip summary
Track  1  accurately ripped (confidence 1)  [6F14F861]  (AR v2)
Track  2  accurately ripped (confidence 1)  [4FC4AEAB]  (AR v2)
Track  3  accurately ripped (confidence 1)  [9BC5BBEE]  (AR v2)
Track  4  accurately ripped (confidence 1)  [F962B67B]  (AR v2)
Track  5  accurately ripped (confidence 1)  [FA1F4E6B]  (AR v2)
Track  6  accurately ripped (confidence 1)  [ACC7C3B7]  (AR v2)
Track  7  accurately ripped (confidence 1)  [87E3DECE]  (AR v2)
Track  8  accurately ripped (confidence 1)  [8E75877A]  (AR v2)
Track  9  accurately ripped (confidence 1)  [A948D266]  (AR v2)
Track 10  accurately ripped (confidence 1)  [CB6DDD18]  (AR v2)
All tracks accurately ripped
End of status report

содержание индексной карты *cue

REM GENRE Metal
REM DATE 1989
REM DISCID 7F0A250A
REM COMMENT "ExactAudioCopy v1.0b3"
PERFORMER "Blind Guardian"
TITLE "Follow The Blind"
FILE "Blind Guardian - Follow The Blind.flac" WAVE
  TRACK 01 AUDIO
    TITLE "Inquisition"
    PERFORMER "Blind Guardian"
    FLAGS DCP
    INDEX 01 00:00:00
  TRACK 02 AUDIO
    TITLE "Banish From Sanctuary"
    PERFORMER "Blind Guardian"
    FLAGS DCP
    INDEX 01 00:41:35
  TRACK 03 AUDIO
    TITLE "Damned For All Time"
    PERFORMER "Blind Guardian"
    FLAGS DCP
    INDEX 00 06:10:03
    INDEX 01 06:12:02
  TRACK 04 AUDIO
    TITLE "Follow The Blind"
    PERFORMER "Blind Guardian"
    FLAGS DCP
    INDEX 00 11:10:22
    INDEX 01 11:12:21
  TRACK 05 AUDIO
    TITLE "Hall Of The King"
    PERFORMER "Blind Guardian"
    FLAGS DCP
    INDEX 00 18:22:09
    INDEX 01 18:24:08
  TRACK 06 AUDIO
    TITLE "Fast To Madness"
    PERFORMER "Blind Guardian"
    FLAGS DCP
    INDEX 00 22:40:64
    INDEX 01 22:42:63
  TRACK 07 AUDIO
    TITLE "Beyond The Ice"
    PERFORMER "Blind Guardian"
    FLAGS DCP
    INDEX 00 28:41:64
    INDEX 01 28:43:64
  TRACK 08 AUDIO
    TITLE "Valhalla"
    PERFORMER "Blind Guardian"
    FLAGS DCP
    INDEX 00 32:12:19
    INDEX 01 32:14:18
  TRACK 09 AUDIO
    TITLE "Don't Break The Circle"
    PERFORMER "Blind Guardian"
    FLAGS DCP
    INDEX 00 37:09:74
    INDEX 01 37:11:74
  TRACK 10 AUDIO
    TITLE "Barbara Ann"
    PERFORMER "Blind Guardian"
    FLAGS DCP
    INDEX 00 41:32:38
    INDEX 01 41:34:37

1990 - Tales From The Twilight World (00:44:11)

- 01. Traveller In Time (06:03)
02. Welcome To Dying (04:52)
03. Weird Dreams (01:21)
04. Lord Of The Rings (03:18)
05. Goodbye My Friend (05:37)
06. Lost In The Twilight Hall (06:05)
07. Tommyknockers (05:11)
08. Altair 4 (01:52)
09. The Last Candle (06:04)
10. Run For The Night (Live) (03:43)

лог создания рипа

Exact Audio Copy V1.0 beta 3 from 29. August 2011
EAC extraction logfile from 3. April 2013, 22:39
Blind Guardian / Tales From The Twilight World
Used drive  : PLEXTOR BD-R  PX-B950SA   Adapter: 6  ID: 0
Read mode               : Secure
Utilize accurate stream : Yes
Defeat audio cache      : Yes
Make use of C2 pointers : No
Read offset correction                      : 6
Overread into Lead-In and Lead-Out          : No
Fill up missing offset samples with silence : Yes
Delete leading and trailing silent blocks   : No
Null samples used in CRC calculations       : Yes
Used interface                              : Native Win32 interface for Win NT & 2000
Used output format : Internal WAV Routines
Sample format      : 44.100 Hz; 16 Bit; Stereo
TOC of the extracted CD
     Track |   Start  |  Length  | Start sector | End sector
    ---------------------------------------------------------
        1  |  0:00.00 |  6:03.39 |         0    |    27263
        2  |  6:03.39 |  4:52.57 |     27264    |    49220
        3  | 10:56.21 |  1:21.50 |     49221    |    55345
        4  | 12:17.71 |  3:18.53 |     55346    |    70248
        5  | 15:36.49 |  5:37.01 |     70249    |    95524
        6  | 21:13.50 |  6:05.41 |     95525    |   122940
        7  | 27:19.16 |  5:11.70 |    122941    |   146335
        8  | 32:31.11 |  1:52.66 |    146336    |   154801
        9  | 34:24.02 |  6:04.30 |    154802    |   182131
       10  | 40:28.32 |  3:43.26 |    182132    |   198882
Range status and errors
Selected range
     Filename C:\Users\Meijin\Desktop\Lossless Galaxy ALLexxess\Blind Guardian\2013 A Traveler's Guide To Space And Time (15CD Box Set EMI Music Germany)\1990 Tales From The Twilight World\Blind Guardian - Tales From The Twilight World.wav
     Peak level 98.8 %
     Extraction speed 6.9 X
     Range quality 100.0 %
     Test CRC 49FF616C
     Copy CRC 49FF616C
     Copy OK
No errors occurred
AccurateRip summary
Track  1  accurately ripped (confidence 1)  [DD22A6AC]  (AR v2)
Track  2  accurately ripped (confidence 1)  [25860A29]  (AR v2)
Track  3  accurately ripped (confidence 1)  [DDE753B0]  (AR v2)
Track  4  accurately ripped (confidence 1)  [E60180FD]  (AR v2)
Track  5  accurately ripped (confidence 1)  [7986FF33]  (AR v2)
Track  6  accurately ripped (confidence 1)  [8D2BEC90]  (AR v2)
Track  7  accurately ripped (confidence 1)  [233A522B]  (AR v2)
Track  8  accurately ripped (confidence 1)  [104B07A1]  (AR v2)
Track  9  accurately ripped (confidence 1)  [74F6ED79]  (AR v2)
Track 10  accurately ripped (confidence 1)  [E9CE6049]  (AR v2)
All tracks accurately ripped
End of status report

содержание индексной карты *cue

REM GENRE Metal
REM DATE 1990
REM DISCID 8E0A5B0A
REM COMMENT "ExactAudioCopy v1.0b3"
PERFORMER "Blind Guardian"
TITLE "Tales From The Twilight World"
FILE "Blind Guardian - Tales From The Twilight World.flac" WAVE
  TRACK 01 AUDIO
    TITLE "Traveller In Time"
    PERFORMER "Blind Guardian"
    FLAGS DCP
    INDEX 01 00:00:00
  TRACK 02 AUDIO
    TITLE "Welcome To Dying"
    PERFORMER "Blind Guardian"
    FLAGS DCP
    INDEX 00 06:01:40
    INDEX 01 06:03:39
  TRACK 03 AUDIO
    TITLE "Weird Dreams"
    PERFORMER "Blind Guardian"
    FLAGS DCP
    INDEX 00 10:54:22
    INDEX 01 10:56:21
  TRACK 04 AUDIO
    TITLE "Lord Of The Rings"
    PERFORMER "Blind Guardian"
    FLAGS DCP
    INDEX 00 12:15:71
    INDEX 01 12:17:71
  TRACK 05 AUDIO
    TITLE "Goodbye My Friend"
    PERFORMER "Blind Guardian"
    FLAGS DCP
    INDEX 00 15:34:50
    INDEX 01 15:36:49
  TRACK 06 AUDIO
    TITLE "Lost In The Twilight Hall"
    PERFORMER "Blind Guardian"
    FLAGS DCP
    INDEX 00 21:11:51
    INDEX 01 21:13:50
  TRACK 07 AUDIO
    TITLE "Tommyknockers"
    PERFORMER "Blind Guardian"
    FLAGS DCP
    INDEX 00 27:17:16
    INDEX 01 27:19:16
  TRACK 08 AUDIO
    TITLE "Altair 4"
    PERFORMER "Blind Guardian"
    FLAGS DCP
    INDEX 00 32:29:12
    INDEX 01 32:31:11
  TRACK 09 AUDIO
    TITLE "The Last Candle"
    PERFORMER "Blind Guardian"
    FLAGS DCP
    INDEX 00 34:22:03
    INDEX 01 34:24:02
  TRACK 10 AUDIO
    TITLE "Run For The Night (Live)"
    PERFORMER "Blind Guardian"
    FLAGS DCP
    INDEX 00 40:26:32
    INDEX 01 40:28:32

1992 - Somewhere Far Beyond.cue (00:55:42)

- 01. Time What Is Time (05:44)
02. Journey Through The Dark (04:50)
03. Black Chamber (00:59)
04. Theatre Of Pain (04:13)
05. The Quest For Tanelorn (05:57)
06. Ashes To Ashes (06:02)
07. The Bard's Song (In The Forest) (03:12)
08. The Bard's Song (The Hobbit) (03:39)
09. The Piper's Calling (00:59)
10. Somewhere Far Beyond (07:34)
11. Spread Your Wings (04:30)
12. Trial By Fire (03:45)
13. Theatre Of Pain (04:11)

лог создания рипа

Exact Audio Copy V1.0 beta 3 from 29. August 2011
EAC extraction logfile from 3. April 2013, 22:07
Blind Guardian / Somewhere Far Beyond
Used drive  : PLEXTOR BD-R  PX-B950SA   Adapter: 6  ID: 0
Read mode               : Secure
Utilize accurate stream : Yes
Defeat audio cache      : Yes
Make use of C2 pointers : No
Read offset correction                      : 6
Overread into Lead-In and Lead-Out          : No
Fill up missing offset samples with silence : Yes
Delete leading and trailing silent blocks   : No
Null samples used in CRC calculations       : Yes
Used interface                              : Native Win32 interface for Win NT & 2000
Used output format : Internal WAV Routines
Sample format      : 44.100 Hz; 16 Bit; Stereo
TOC of the extracted CD
     Track |   Start  |  Length  | Start sector | End sector
    ---------------------------------------------------------
        1  |  0:00.00 |  5:44.42 |         0    |    25841
        2  |  5:44.42 |  4:50.12 |     25842    |    47603
        3  | 10:34.54 |  0:59.61 |     47604    |    52089
        4  | 11:34.40 |  4:13.12 |     52090    |    71076
        5  | 15:47.52 |  5:57.13 |     71077    |    97864
        6  | 21:44.65 |  6:02.55 |     97865    |   125069
        7  | 27:47.45 |  3:12.53 |    125070    |   139522
        8  | 31:00.23 |  3:39.49 |    139523    |   155996
        9  | 34:39.72 |  0:59.47 |    155997    |   160468
       10  | 35:39.44 |  7:34.28 |    160469    |   194546
       11  | 43:13.72 |  4:30.45 |    194547    |   214841
       12  | 47:44.42 |  3:45.71 |    214842    |   231787
       13  | 51:30.38 |  4:11.59 |    231788    |   250671
Range status and errors
Selected range
     Filename C:\Users\Meijin\Desktop\Lossless Galaxy ALLexxess\Blind Guardian\2013 A Traveler's Guide To Space And Time (15CD Box Set EMI Music Germany)\1992 Somewhere Far Beyond\Blind Guardian - Somewhere Far Beyond.wav
     Peak level 98.8 %
     Extraction speed 7.3 X
     Range quality 100.0 %
     Test CRC 2CA09DE9
     Copy CRC 2CA09DE9
     Copy OK
No errors occurred
AccurateRip summary
Track  1  accurately ripped (confidence 1)  [11CA291C]  (AR v2)
Track  2  accurately ripped (confidence 1)  [0951C3EA]  (AR v2)
Track  3  accurately ripped (confidence 1)  [F17EC233]  (AR v2)
Track  4  accurately ripped (confidence 1)  [5E467299]  (AR v2)
Track  5  accurately ripped (confidence 1)  [61FA5FC9]  (AR v2)
Track  6  accurately ripped (confidence 1)  [9191D443]  (AR v2)
Track  7  accurately ripped (confidence 1)  [628A0785]  (AR v2)
Track  8  accurately ripped (confidence 1)  [5A3C7FDA]  (AR v2)
Track  9  accurately ripped (confidence 1)  [EC44B630]  (AR v2)
Track 10  accurately ripped (confidence 1)  [C7C8DA96]  (AR v2)
Track 11  accurately ripped (confidence 1)  [43D9CF68]  (AR v2)
Track 12  accurately ripped (confidence 1)  [255B7F77]  (AR v2)
Track 13  accurately ripped (confidence 1)  [C3B8C6CF]  (AR v2)
All tracks accurately ripped
End of status report

содержание индексной карты *cue

REM GENRE Metal
REM DATE 1992
REM DISCID C60D0E0D
REM COMMENT "ExactAudioCopy v1.0b3"
PERFORMER "Blind Guardian"
TITLE "Somewhere Far Beyond"
FILE "Blind Guardian - Somewhere Far Beyond.flac" WAVE
  TRACK 01 AUDIO
    TITLE "Time What Is Time"
    PERFORMER "Blind Guardian"
    FLAGS DCP
    INDEX 01 00:00:00
  TRACK 02 AUDIO
    TITLE "Journey Through The Dark"
    PERFORMER "Blind Guardian"
    FLAGS DCP
    INDEX 00 05:42:43
    INDEX 01 05:44:42
  TRACK 03 AUDIO
    TITLE "Black Chamber"
    PERFORMER "Blind Guardian"
    FLAGS DCP
    INDEX 00 10:32:55
    INDEX 01 10:34:54
  TRACK 04 AUDIO
    TITLE "Theatre Of Pain"
    PERFORMER "Blind Guardian"
    FLAGS DCP
    INDEX 00 11:32:41
    INDEX 01 11:34:40
  TRACK 05 AUDIO
    TITLE "The Quest For Tanelorn"
    PERFORMER "Blind Guardian"
    FLAGS DCP
    INDEX 00 15:45:53
    INDEX 01 15:47:52
  TRACK 06 AUDIO
    TITLE "Ashes To Ashes"
    PERFORMER "Blind Guardian"
    FLAGS DCP
    INDEX 00 21:42:66
    INDEX 01 21:44:65
  TRACK 07 AUDIO
    TITLE "The Bard's Song (In The Forest)"
    PERFORMER "Blind Guardian"
    FLAGS DCP
    INDEX 00 27:45:46
    INDEX 01 27:47:45
  TRACK 08 AUDIO
    TITLE "The Bard's Song (The Hobbit)"
    PERFORMER "Blind Guardian"
    FLAGS DCP
    INDEX 00 30:58:24
    INDEX 01 31:00:23
  TRACK 09 AUDIO
    TITLE "The Piper's Calling"
    PERFORMER "Blind Guardian"
    FLAGS DCP
    INDEX 00 34:37:73
    INDEX 01 34:39:72
  TRACK 10 AUDIO
    TITLE "Somewhere Far Beyond"
    PERFORMER "Blind Guardian"
    FLAGS DCP
    INDEX 00 35:37:44
    INDEX 01 35:39:44
  TRACK 11 AUDIO
    TITLE "Spread Your Wings"
    PERFORMER "Blind Guardian"
    FLAGS DCP
    INDEX 00 43:11:73
    INDEX 01 43:13:72
  TRACK 12 AUDIO
    TITLE "Trial By Fire"
    PERFORMER "Blind Guardian"
    FLAGS DCP
    INDEX 00 47:42:43
    INDEX 01 47:44:42
  TRACK 13 AUDIO
    TITLE "Theatre Of Pain"
    PERFORMER "Blind Guardian"
    FLAGS DCP
    INDEX 00 51:28:38
    INDEX 01 51:30:38

1993 - Tokyo Tales (01:08:15)

- 01. Inquisition (00:49)
02. Banish From Sanctuary (06:13)
03. Journey Through The Dark (05:12)
04. Traveler In Time (06:33)
05. The Quest For Tanelorn (06:02)
06. Goodbye My Friend (06:27)
07. Time What Is Time (06:41)
08. Majesty (07:50)
09. Valhalla (06:08)
10. Welcome To Dying (05:55)
11. Lost In The Twilight Hall (07:25)
12. Barbara Ann (02:56)

лог создания рипа

Exact Audio Copy V1.0 beta 3 from 29. August 2011
EAC extraction logfile from 3. April 2013, 21:33
Blind Guardian / Tokyo Tales
Used drive  : PLEXTOR BD-R  PX-B950SA   Adapter: 6  ID: 0
Read mode               : Secure
Utilize accurate stream : Yes
Defeat audio cache      : Yes
Make use of C2 pointers : No
Read offset correction                      : 6
Overread into Lead-In and Lead-Out          : No
Fill up missing offset samples with silence : Yes
Delete leading and trailing silent blocks   : No
Null samples used in CRC calculations       : Yes
Used interface                              : Native Win32 interface for Win NT & 2000
Used output format : Internal WAV Routines
Sample format      : 44.100 Hz; 16 Bit; Stereo
TOC of the extracted CD
     Track |   Start  |  Length  | Start sector | End sector
    ---------------------------------------------------------
        1  |  0:00.00 |  0:49.60 |         0    |     3734
        2  |  0:49.60 |  6:13.02 |      3735    |    31711
        3  |  7:02.62 |  5:12.05 |     31712    |    55116
        4  | 12:14.67 |  6:33.23 |     55117    |    84614
        5  | 18:48.15 |  6:02.26 |     84615    |   111790
        6  | 24:50.41 |  6:27.15 |    111791    |   140830
        7  | 31:17.56 |  6:41.48 |    140831    |   170953
        8  | 37:59.29 |  7:50.10 |    170954    |   206213
        9  | 45:49.39 |  6:08.37 |    206214    |   233850
       10  | 51:58.01 |  5:55.73 |    233851    |   260548
       11  | 57:53.74 |  7:25.18 |    260549    |   293941
       12  | 65:19.17 |  2:56.37 |    293942    |   307178
Range status and errors
Selected range
     Filename C:\Users\Meijin\Desktop\Lossless Galaxy ALLexxess\Blind Guardian\2013 A Traveler's Guide To Space And Time (15CD Box Set EMI Music Germany)\1993 Tokyo Tales\Blind Guardian - Tokyo Tales.wav
     Peak level 98.8 %
     Extraction speed 7.6 X
     Range quality 100.0 %
     Test CRC A3E8E246
     Copy CRC A3E8E246
     Copy OK
No errors occurred
AccurateRip summary
Track  1  accurately ripped (confidence 1)  [644F5C78]  (AR v2)
Track  2  accurately ripped (confidence 1)  [8B38CA0F]  (AR v2)
Track  3  accurately ripped (confidence 1)  [56086B8D]  (AR v2)
Track  4  accurately ripped (confidence 1)  [ACA975E9]  (AR v2)
Track  5  accurately ripped (confidence 1)  [CD2A4CB2]  (AR v2)
Track  6  accurately ripped (confidence 1)  [3CAACFAD]  (AR v2)
Track  7  accurately ripped (confidence 1)  [3E20FE08]  (AR v2)
Track  8  accurately ripped (confidence 1)  [DD984158]  (AR v2)
Track  9  accurately ripped (confidence 1)  [38F01D95]  (AR v2)
Track 10  accurately ripped (confidence 1)  [11394AAE]  (AR v2)
Track 11  accurately ripped (confidence 1)  [1FF073BC]  (AR v2)
Track 12  accurately ripped (confidence 1)  [D683F683]  (AR v2)
All tracks accurately ripped
End of status report

содержание индексной карты *cue

REM GENRE Metal
REM DATE 1993
REM DISCID 940FFF0C
REM COMMENT "ExactAudioCopy v1.0b3"
PERFORMER "Blind Guardian"
TITLE "Tokyo Tales"
FILE "Blind Guardian - Tokyo Tales.flac" WAVE
  TRACK 01 AUDIO
    TITLE "Inquisition"
    PERFORMER "Blind Guardian"
    FLAGS DCP
    INDEX 01 00:00:00
  TRACK 02 AUDIO
    TITLE "Banish From Sanctuary"
    PERFORMER "Blind Guardian"
    FLAGS DCP
    INDEX 01 00:49:60
  TRACK 03 AUDIO
    TITLE "Journey Through The Dark"
    PERFORMER "Blind Guardian"
    FLAGS DCP
    INDEX 01 07:02:62
  TRACK 04 AUDIO
    TITLE "Traveler In Time"
    PERFORMER "Blind Guardian"
    FLAGS DCP
    INDEX 01 12:14:67
  TRACK 05 AUDIO
    TITLE "The Quest For Tanelorn"
    PERFORMER "Blind Guardian"
    FLAGS DCP
    INDEX 01 18:48:15
  TRACK 06 AUDIO
    TITLE "Goodbye My Friend"
    PERFORMER "Blind Guardian"
    FLAGS DCP
    INDEX 01 24:50:41
  TRACK 07 AUDIO
    TITLE "Time What Is Time"
    PERFORMER "Blind Guardian"
    FLAGS DCP
    INDEX 01 31:17:56
  TRACK 08 AUDIO
    TITLE "Majesty"
    PERFORMER "Blind Guardian"
    FLAGS DCP
    INDEX 01 37:59:29
  TRACK 09 AUDIO
    TITLE "Valhalla"
    PERFORMER "Blind Guardian"
    FLAGS DCP
    INDEX 01 45:49:39
  TRACK 10 AUDIO
    TITLE "Welcome To Dying"
    PERFORMER "Blind Guardian"
    FLAGS DCP
    INDEX 01 51:58:01
  TRACK 11 AUDIO
    TITLE "Lost In The Twilight Hall"
    PERFORMER "Blind Guardian"
    FLAGS DCP
    INDEX 01 57:53:74
  TRACK 12 AUDIO
    TITLE "Barbara Ann"
    PERFORMER "Blind Guardian"
    FLAGS DCP
    INDEX 01 65:19:17

1995 - Imaginations From The Other Side (00:50:02)

- 01. Imaginations From The Other Side (07:12)
02. I'm Alive (05:33)
03. A Past And Future Secret (03:45)
04. The Script For My Requiem (06:54)
05. Mordred's Song (05:29)
06. Born In A Mourning Hall (05:16)
07. Bright Eyes (05:16)
08. Another Holy War (04:37)
09. And The Story Ends (05:57)

лог создания рипа

Exact Audio Copy V1.0 beta 3 from 29. August 2011
EAC extraction logfile from 3. April 2013, 20:49
Blind Guardian / Imaginations From The Other Side
Used drive  : PLEXTOR BD-R  PX-B950SA   Adapter: 6  ID: 0
Read mode               : Secure
Utilize accurate stream : Yes
Defeat audio cache      : Yes
Make use of C2 pointers : No
Read offset correction                      : 6
Overread into Lead-In and Lead-Out          : No
Fill up missing offset samples with silence : Yes
Delete leading and trailing silent blocks   : No
Null samples used in CRC calculations       : Yes
Used interface                              : Native Win32 interface for Win NT & 2000
Used output format : Internal WAV Routines
Sample format      : 44.100 Hz; 16 Bit; Stereo
TOC of the extracted CD
     Track |   Start  |  Length  | Start sector | End sector
    ---------------------------------------------------------
        1  |  0:00.00 |  7:12.24 |         0    |    32423
        2  |  7:12.24 |  5:33.08 |     32424    |    57406
        3  | 12:45.32 |  3:45.36 |     57407    |    74317
        4  | 16:30.68 |  6:54.27 |     74318    |   105394
        5  | 23:25.20 |  5:29.34 |    105395    |   130103
        6  | 28:54.54 |  5:16.12 |    130104    |   153815
        7  | 34:10.66 |  5:16.36 |    153816    |   177551
        8  | 39:27.27 |  4:37.02 |    177552    |   198328
        9  | 44:04.29 |  5:57.48 |    198329    |   225151
Range status and errors
Selected range
     Filename C:\Users\Meijin\Desktop\Lossless Galaxy ALLexxess\Blind Guardian\2013 A Traveler's Guide To Space And Time (15CD Box Set EMI Music Germany)\1995 Imaginations From The Other Side\Blind Guardian - Imaginations From The Other Side.wav
     Peak level 98.8 %
     Extraction speed 7.1 X
     Range quality 100.0 %
     Test CRC CD8D9530
     Copy CRC CD8D9530
     Copy OK
No errors occurred
AccurateRip summary
Track  1  accurately ripped (confidence 1)  [C5CBBC9F]  (AR v2)
Track  2  accurately ripped (confidence 1)  [C611D1C9]  (AR v2)
Track  3  accurately ripped (confidence 1)  [338E2DCC]  (AR v2)
Track  4  accurately ripped (confidence 1)  [A1F5E99B]  (AR v2)
Track  5  accurately ripped (confidence 1)  [FD88480C]  (AR v2)
Track  6  accurately ripped (confidence 1)  [EA3CA157]  (AR v2)
Track  7  accurately ripped (confidence 1)  [01C9928F]  (AR v2)
Track  8  accurately ripped (confidence 1)  [9E9AD6C5]  (AR v2)
Track  9  accurately ripped (confidence 1)  [2B570CFE]  (AR v2)
All tracks accurately ripped
End of status report

содержание индексной карты *cue

REM GENRE Metal
REM DATE 1995
REM DISCID 810BBA09
REM COMMENT "ExactAudioCopy v1.0b3"
PERFORMER "Blind Guardian"
TITLE "Imaginations From The Other Side"
FILE "Blind Guardian - Imaginations From The Other Side.flac" WAVE
  TRACK 01 AUDIO
    TITLE "Imaginations From The Other Side"
    PERFORMER "Blind Guardian"
    FLAGS DCP
    INDEX 01 00:00:00
  TRACK 02 AUDIO
    TITLE "I'm Alive"
    PERFORMER "Blind Guardian"
    FLAGS DCP
    INDEX 00 07:10:25
    INDEX 01 07:12:24
  TRACK 03 AUDIO
    TITLE "A Past And Future Secret"
    PERFORMER "Blind Guardian"
    FLAGS DCP
    INDEX 00 12:43:32
    INDEX 01 12:45:32
  TRACK 04 AUDIO
    TITLE "The Script For My Requiem"
    PERFORMER "Blind Guardian"
    FLAGS DCP
    INDEX 00 16:28:68
    INDEX 01 16:30:68
  TRACK 05 AUDIO
    TITLE "Mordred's Song"
    PERFORMER "Blind Guardian"
    FLAGS DCP
    INDEX 01 23:25:20
  TRACK 06 AUDIO
    TITLE "Born In A Mourning Hall"
    PERFORMER "Blind Guardian"
    FLAGS DCP
    INDEX 00 28:52:55
    INDEX 01 28:54:54
  TRACK 07 AUDIO
    TITLE "Bright Eyes"
    PERFORMER "Blind Guardian"
    FLAGS DCP
    INDEX 00 34:08:67
    INDEX 01 34:10:66
  TRACK 08 AUDIO
    TITLE "Another Holy War"
    PERFORMER "Blind Guardian"
    FLAGS DCP
    INDEX 00 39:25:28
    INDEX 01 39:27:27
  TRACK 09 AUDIO
    TITLE "And The Story Ends"
    PERFORMER "Blind Guardian"
    FLAGS DCP
    INDEX 00 44:02:29
    INDEX 01 44:04:29

1996 - The Forgotten Tales (00:45:51)

- 01. Mr. Sandman (02:11)
02. Surfin' USA (02:25)
03. Bright Eyes (Acoustic Version) (04:22)
04. Lord Of The Rings (Orchestral Version) (03:56)
05. The Wizard (03:17)
06. Spread Your Wings (04:15)
07. Mordred's Song (Acoustic Version) (05:17)
08. Black Chamber (Orchestral Version) (01:17)
09. The Bard's Song (In The Forest) (Live) (04:13)
10. Barbara Ann / Long Tall Sally (01:45)
11. A Past And Future Secret (03:48)
12. To France (04:42)
13. Theatre Of Pain (Orchestral Version) (04:16)

лог создания рипа

Exact Audio Copy V1.0 beta 3 from 29. August 2011
EAC extraction logfile from 3. April 2013, 20:18
Blind Guardian / The Forgotten Tales
Used drive  : PLEXTOR BD-R  PX-B950SA   Adapter: 6  ID: 0
Read mode               : Secure
Utilize accurate stream : Yes
Defeat audio cache      : Yes
Make use of C2 pointers : No
Read offset correction                      : 6
Overread into Lead-In and Lead-Out          : No
Fill up missing offset samples with silence : Yes
Delete leading and trailing silent blocks   : No
Null samples used in CRC calculations       : Yes
Used interface                              : Native Win32 interface for Win NT & 2000
Used output format : Internal WAV Routines
Sample format      : 44.100 Hz; 16 Bit; Stereo
TOC of the extracted CD
     Track |   Start  |  Length  | Start sector | End sector
    ---------------------------------------------------------
        1  |  0:00.00 |  2:11.58 |         0    |     9882
        2  |  2:11.58 |  2:25.01 |      9883    |    20758
        3  |  4:36.59 |  4:22.49 |     20759    |    40457
        4  |  8:59.33 |  3:56.55 |     40458    |    58212
        5  | 12:56.13 |  3:17.61 |     58213    |    73048
        6  | 16:13.74 |  4:15.41 |     73049    |    92214
        7  | 20:29.40 |  5:17.61 |     92215    |   116050
        8  | 25:47.26 |  1:17.07 |    116051    |   121832
        9  | 27:04.33 |  4:13.07 |    121833    |   140814
       10  | 31:17.40 |  1:45.51 |    140815    |   148740
       11  | 33:03.16 |  3:48.50 |    148741    |   165890
       12  | 36:51.66 |  4:42.52 |    165891    |   187092
       13  | 41:34.43 |  4:16.36 |    187093    |   206328
Range status and errors
Selected range
     Filename C:\Users\Meijin\Desktop\Lossless Galaxy ALLexxess\Blind Guardian\2013 A Traveler's Guide To Space And Time (15CD Box Set EMI Music Germany)\1996 The Forgotten Tales\Blind Guardian - The Forgotten Tales.wav
     Peak level 98.8 %
     Extraction speed 7.0 X
     Range quality 100.0 %
     Test CRC C499548C
     Copy CRC C499548C
     Copy OK
No errors occurred
AccurateRip summary
Track  1  accurately ripped (confidence 1)  [6618C948]  (AR v2)
Track  2  accurately ripped (confidence 1)  [4B96C0ED]  (AR v2)
Track  3  accurately ripped (confidence 1)  [2D6DA947]  (AR v2)
Track  4  accurately ripped (confidence 1)  [6354C81E]  (AR v2)
Track  5  accurately ripped (confidence 1)  [1CD0DAFB]  (AR v2)
Track  6  accurately ripped (confidence 1)  [7EC90EFE]  (AR v2)
Track  7  accurately ripped (confidence 1)  [3EA526DF]  (AR v2)
Track  8  accurately ripped (confidence 1)  [F24949E2]  (AR v2)
Track  9  accurately ripped (confidence 1)  [426739DE]  (AR v2)
Track 10  accurately ripped (confidence 1)  [513740DA]  (AR v2)
Track 11  accurately ripped (confidence 1)  [0234C26E]  (AR v2)
Track 12  accurately ripped (confidence 1)  [20E5C77C]  (AR v2)
Track 13  accurately ripped (confidence 1)  [4559460E]  (AR v2)
All tracks accurately ripped
End of status report

содержание индексной карты *cue

REM GENRE Metal
REM DATE 1996
REM DISCID C50ABF0D
REM COMMENT "ExactAudioCopy v1.0b3"
PERFORMER "Blind Guardian"
TITLE "The Forgotten Tales"
FILE "Blind Guardian - The Forgotten Tales.flac" WAVE
  TRACK 01 AUDIO
    TITLE "Mr. Sandman"
    PERFORMER "Blind Guardian"
    FLAGS DCP
    INDEX 01 00:00:00
  TRACK 02 AUDIO
    TITLE "Surfin' USA"
    PERFORMER "Blind Guardian"
    FLAGS DCP
    INDEX 00 02:09:59
    INDEX 01 02:11:58
  TRACK 03 AUDIO
    TITLE "Bright Eyes (Acoustic Version)"
    PERFORMER "Blind Guardian"
    FLAGS DCP
    INDEX 00 04:34:60
    INDEX 01 04:36:59
  TRACK 04 AUDIO
    TITLE "Lord Of The Rings (Orchestral Version)"
    PERFORMER "Blind Guardian"
    FLAGS DCP
    INDEX 00 08:57:34
    INDEX 01 08:59:33
  TRACK 05 AUDIO
    TITLE "The Wizard"
    PERFORMER "Blind Guardian"
    FLAGS DCP
    INDEX 00 12:54:14
    INDEX 01 12:56:13
  TRACK 06 AUDIO
    TITLE "Spread Your Wings"
    PERFORMER "Blind Guardian"
    FLAGS DCP
    INDEX 00 16:11:74
    INDEX 01 16:13:74
  TRACK 07 AUDIO
    TITLE "Mordred's Song (Acoustic Version)"
    PERFORMER "Blind Guardian"
    FLAGS DCP
    INDEX 00 20:27:40
    INDEX 01 20:29:40
  TRACK 08 AUDIO
    TITLE "Black Chamber (Orchestral Version)"
    PERFORMER "Blind Guardian"
    FLAGS DCP
    INDEX 00 25:45:27
    INDEX 01 25:47:26
  TRACK 09 AUDIO
    TITLE "The Bard's Song (In The Forest) (Live)"
    PERFORMER "Blind Guardian"
    FLAGS DCP
    INDEX 00 27:02:34
    INDEX 01 27:04:33
  TRACK 10 AUDIO
    TITLE "Barbara Ann / Long Tall Sally"
    PERFORMER "Blind Guardian"
    FLAGS DCP
    INDEX 00 31:15:40
    INDEX 01 31:17:40
  TRACK 11 AUDIO
    TITLE "A Past And Future Secret"
    PERFORMER "Blind Guardian"
    FLAGS DCP
    INDEX 00 33:01:16
    INDEX 01 33:03:16
  TRACK 12 AUDIO
    TITLE "To France"
    PERFORMER "Blind Guardian"
    FLAGS DCP
    INDEX 00 36:49:67
    INDEX 01 36:51:66
  TRACK 13 AUDIO
    TITLE "Theatre Of Pain (Orchestral Version)"
    PERFORMER "Blind Guardian"
    FLAGS DCP
    INDEX 00 41:32:44
    INDEX 01 41:34:43

1998 - Nightfall In Middle-Earth.cue (01:05:33)

- 01. War Of Wrath (01:50)
02. Into The Storm (04:24)
03. Lammoth (00:28)
04. Nightfall (05:32)
05. The Ministrel (00:31)
06. The Curse Of Feanor (05:41)
07. Captured (00:26)
08. Blood Tears (05:20)
09. Mirror Mirror (05:06)
10. Face The Truth (00:27)
11. Noldor (Dead Winter Reigns) (06:49)
12. Battle Of Sudden Flame (00:42)
13. Time Stands Still (At The Iron Hill) (04:54)
14. The Dark Elf (00:23)
15. Thorn (06:17)
16. The Eldar (03:38)
17. Nom The Wise (00:34)
18. When Sorrow Sang (04:25)
19. Out On The Water (00:44)
20. The Steadfast (00:21)
21. A Dark Passage (06:00)
22. Final Chapter (Thus Ends) (00:51)

лог создания рипа

Exact Audio Copy V1.0 beta 3 from 29. August 2011
EAC extraction logfile from 3. April 2013, 19:46
Blind Guardian / Nightfall In Middle-Earth
Used drive  : PLEXTOR BD-R  PX-B950SA   Adapter: 6  ID: 0
Read mode               : Secure
Utilize accurate stream : Yes
Defeat audio cache      : Yes
Make use of C2 pointers : No
Read offset correction                      : 6
Overread into Lead-In and Lead-Out          : No
Fill up missing offset samples with silence : Yes
Delete leading and trailing silent blocks   : No
Null samples used in CRC calculations       : Yes
Used interface                              : Native Win32 interface for Win NT & 2000
Used output format : Internal WAV Routines
Sample format      : 44.100 Hz; 16 Bit; Stereo
TOC of the extracted CD
     Track |   Start  |  Length  | Start sector | End sector
    ---------------------------------------------------------
        1  |  0:00.00 |  1:50.60 |         0    |     8309
        2  |  1:50.60 |  4:24.61 |      8310    |    28170
        3  |  6:15.46 |  0:28.09 |     28171    |    30279
        4  |  6:43.55 |  5:32.70 |     30280    |    55249
        5  | 12:16.50 |  0:31.31 |     55250    |    57605
        6  | 12:48.06 |  5:41.08 |     57606    |    83188
        7  | 18:29.14 |  0:26.08 |     83189    |    85146
        8  | 18:55.22 |  5:20.47 |     85147    |   109193
        9  | 24:15.69 |  5:06.33 |    109194    |   132176
       10  | 29:22.27 |  0:27.09 |    132177    |   134210
       11  | 29:49.36 |  6:49.06 |    134211    |   164891
       12  | 36:38.42 |  0:42.64 |    164892    |   168105
       13  | 37:21.31 |  4:54.34 |    168106    |   190189
       14  | 42:15.65 |  0:23.55 |    190190    |   191969
       15  | 42:39.45 |  6:17.55 |    191970    |   220299
       16  | 48:57.25 |  3:38.05 |    220300    |   236654
       17  | 52:35.30 |  0:34.24 |    236655    |   239228
       18  | 53:09.54 |  4:25.30 |    239229    |   259133
       19  | 57:35.09 |  0:44.65 |    259134    |   262498
       20  | 58:19.74 |  0:21.68 |    262499    |   264141
       21  | 58:41.67 |  6:00.26 |    264142    |   291167
       22  | 64:42.18 |  0:51.03 |    291168    |   294995
Range status and errors
Selected range
     Filename C:\Users\Meijin\Desktop\Lossless Galaxy ALLexxess\Blind Guardian\2013 A Traveler's Guide To Space And Time (15CD Box Set EMI Music Germany)\1998 Nightfall In Middle-Earth\Blind Guardian - Nightfall In Middle-Earth.wav
     Peak level 99.8 %
     Extraction speed 7.6 X
     Range quality 100.0 %
     Test CRC B2F46882
     Copy CRC B2F46882
     Copy OK
No errors occurred
AccurateRip summary
Track  1  accurately ripped (confidence 1)  [A0C87CD6]  (AR v2)
Track  2  accurately ripped (confidence 1)  [E8897012]  (AR v2)
Track  3  accurately ripped (confidence 1)  [AF607B9C]  (AR v2)
Track  4  accurately ripped (confidence 1)  [EA909D1C]  (AR v2)
Track  5  accurately ripped (confidence 1)  [D88E99B9]  (AR v2)
Track  6  accurately ripped (confidence 1)  [2001F837]  (AR v2)
Track  7  accurately ripped (confidence 1)  [4B1B9980]  (AR v2)
Track  8  accurately ripped (confidence 1)  [8DF5C938]  (AR v2)
Track  9  accurately ripped (confidence 1)  [BCECAD43]  (AR v2)
Track 10  accurately ripped (confidence 1)  [9CC65442]  (AR v2)
Track 11  accurately ripped (confidence 1)  [5FF9F76B]  (AR v2)
Track 12  accurately ripped (confidence 1)  [EEFE362A]  (AR v2)
Track 13  accurately ripped (confidence 1)  [7BA90233]  (AR v2)
Track 14  accurately ripped (confidence 1)  [2CF3DA87]  (AR v2)
Track 15  accurately ripped (confidence 1)  [B47CE401]  (AR v2)
Track 16  accurately ripped (confidence 1)  [A9759D50]  (AR v2)
Track 17  accurately ripped (confidence 1)  [1B57BB24]  (AR v2)
Track 18  accurately ripped (confidence 1)  [9FF75AE9]  (AR v2)
Track 19  accurately ripped (confidence 1)  [AC835B7F]  (AR v2)
Track 20  accurately ripped (confidence 1)  [89F73075]  (AR v2)
Track 21  accurately ripped (confidence 1)  [F0DF68D0]  (AR v2)
Track 22  accurately ripped (confidence 1)  [16C928A9]  (AR v2)
All tracks accurately ripped
End of status report

содержание индексной карты *cue

REM GENRE Metal
REM DATE 1998
REM DISCID 290F5D16
REM COMMENT "ExactAudioCopy v1.0b3"
PERFORMER "Blind Guardian"
TITLE "Nightfall In Middle-Earth"
FILE "Blind Guardian - Nightfall In Middle-Earth.flac" WAVE
  TRACK 01 AUDIO
    TITLE "War Of Wrath"
    PERFORMER "Blind Guardian"
    FLAGS DCP
    INDEX 01 00:00:00
  TRACK 02 AUDIO
    TITLE "Into The Storm"
    PERFORMER "Blind Guardian"
    FLAGS DCP
    INDEX 01 01:50:60
  TRACK 03 AUDIO
    TITLE "Lammoth"
    PERFORMER "Blind Guardian"
    FLAGS DCP
    INDEX 01 06:15:46
  TRACK 04 AUDIO
    TITLE "Nightfall"
    PERFORMER "Blind Guardian"
    FLAGS DCP
    INDEX 01 06:43:55
  TRACK 05 AUDIO
    TITLE "The Ministrel"
    PERFORMER "Blind Guardian"
    FLAGS DCP
    INDEX 01 12:16:50
  TRACK 06 AUDIO
    TITLE "The Curse Of Feanor"
    PERFORMER "Blind Guardian"
    FLAGS DCP
    INDEX 01 12:48:06
  TRACK 07 AUDIO
    TITLE "Captured"
    PERFORMER "Blind Guardian"
    FLAGS DCP
    INDEX 01 18:29:14
  TRACK 08 AUDIO
    TITLE "Blood Tears"
    PERFORMER "Blind Guardian"
    FLAGS DCP
    INDEX 01 18:55:22
  TRACK 09 AUDIO
    TITLE "Mirror Mirror"
    PERFORMER "Blind Guardian"
    FLAGS DCP
    INDEX 01 24:15:69
  TRACK 10 AUDIO
    TITLE "Face The Truth"
    PERFORMER "Blind Guardian"
    FLAGS DCP
    INDEX 01 29:22:27
  TRACK 11 AUDIO
    TITLE "Noldor (Dead Winter Reigns)"
    PERFORMER "Blind Guardian"
    FLAGS DCP
    INDEX 01 29:49:36
  TRACK 12 AUDIO
    TITLE "Battle Of Sudden Flame"
    PERFORMER "Blind Guardian"
    FLAGS DCP
    INDEX 01 36:38:42
  TRACK 13 AUDIO
    TITLE "Time Stands Still (At The Iron Hill)"
    PERFORMER "Blind Guardian"
    FLAGS DCP
    INDEX 01 37:21:31
  TRACK 14 AUDIO
    TITLE "The Dark Elf"
    PERFORMER "Blind Guardian"
    FLAGS DCP
    INDEX 01 42:15:65
  TRACK 15 AUDIO
    TITLE "Thorn"
    PERFORMER "Blind Guardian"
    FLAGS DCP
    INDEX 01 42:39:45
  TRACK 16 AUDIO
    TITLE "The Eldar"
    PERFORMER "Blind Guardian"
    FLAGS DCP
    INDEX 01 48:57:25
  TRACK 17 AUDIO
    TITLE "Nom The Wise"
    PERFORMER "Blind Guardian"
    FLAGS DCP
    INDEX 01 52:35:30
  TRACK 18 AUDIO
    TITLE "When Sorrow Sang"
    PERFORMER "Blind Guardian"
    FLAGS DCP
    INDEX 01 53:09:54
  TRACK 19 AUDIO
    TITLE "Out On The Water"
    PERFORMER "Blind Guardian"
    FLAGS DCP
    INDEX 01 57:35:09
  TRACK 20 AUDIO
    TITLE "The Steadfast"
    PERFORMER "Blind Guardian"
    FLAGS DCP
    INDEX 01 58:19:74
  TRACK 21 AUDIO
    TITLE "A Dark Passage"
    PERFORMER "Blind Guardian"
    FLAGS DCP
    INDEX 01 58:41:67
  TRACK 22 AUDIO
    TITLE "Final Chapter (Thus Ends)"
    PERFORMER "Blind Guardian"
    FLAGS DCP
    INDEX 01 64:42:18

2002 - A Night At The Opera.cue (01:06:59)

- 01. Precious Jerusalem (06:21)
02. Battlefield (05:36)
03. Under The Ice (05:44)
04. Sadly Sings Destiny (06:04)
05. The Maiden And The Minstrel Knight (05:30)
06. Wait For An Answer (06:30)
07. The Soulforged (05:18)
08. Age Of False Innocence (06:04)
09. Punishment Divine (05:43)
10. And Then There Was Silence (14:05)

лог создания рипа

Exact Audio Copy V1.0 beta 3 from 29. August 2011
EAC extraction logfile from 2. April 2013, 22:01
Blind Guardian / A Night At The Opera
Used drive  : PLEXTOR BD-R  PX-B950SA   Adapter: 6  ID: 0
Read mode               : Secure
Utilize accurate stream : Yes
Defeat audio cache      : Yes
Make use of C2 pointers : No
Read offset correction                      : 6
Overread into Lead-In and Lead-Out          : No
Fill up missing offset samples with silence : Yes
Delete leading and trailing silent blocks   : No
Null samples used in CRC calculations       : Yes
Used interface                              : Native Win32 interface for Win NT & 2000
Used output format : Internal WAV Routines
Sample format      : 44.100 Hz; 16 Bit; Stereo
TOC of the extracted CD
     Track |   Start  |  Length  | Start sector | End sector
    ---------------------------------------------------------
        1  |  0:00.00 |  6:21.15 |         0    |    28589
        2  |  6:21.15 |  5:36.60 |     28590    |    53849
        3  | 11:58.00 |  5:44.45 |     53850    |    79694
        4  | 17:42.45 |  6:04.31 |     79695    |   107025
        5  | 23:47.01 |  5:30.10 |    107026    |   131785
        6  | 29:17.11 |  6:30.14 |    131786    |   161049
        7  | 35:47.25 |  5:18.21 |    161050    |   184920
        8  | 41:05.46 |  6:04.40 |    184921    |   212260
        9  | 47:10.11 |  5:43.50 |    212261    |   238035
       10  | 52:53.61 | 14:05.53 |    238036    |   301463
Range status and errors
Selected range
     Filename C:\Users\Meijin\Desktop\Lossless Galaxy ALLexxess\Blind Guardian\2013 A Traveler's Guide To Space And Time (15CD Box Set EMI Music Germany)\2002 A Night At The Opera\Blind Guardian - A Night At The Opera.wav
     Peak level 98.8 %
     Extraction speed 7.6 X
     Range quality 99.9 %
     Test CRC DC445DDE
     Copy CRC DC445DDE
     Copy OK
No errors occurred
AccurateRip summary
Track  1  accurately ripped (confidence 1)  [D700DD4E]  (AR v2)
Track  2  accurately ripped (confidence 1)  [20ABBB53]  (AR v2)
Track  3  accurately ripped (confidence 1)  [0EA312B2]  (AR v2)
Track  4  accurately ripped (confidence 1)  [564CC12D]  (AR v2)
Track  5  accurately ripped (confidence 1)  [CB332AF1]  (AR v2)
Track  6  accurately ripped (confidence 1)  [2F1D1701]  (AR v2)
Track  7  accurately ripped (confidence 1)  [BDBFF160]  (AR v2)
Track  8  accurately ripped (confidence 1)  [7F8345E2]  (AR v2)
Track  9  accurately ripped (confidence 1)  [D3D2D1EF]  (AR v2)
Track 10  accurately ripped (confidence 1)  [0E9A8DB8]  (AR v2)
All tracks accurately ripped
End of status report

содержание индексной карты *cue

REM GENRE Metal
REM DATE 2002
REM DISCID 8C0FB30A
REM COMMENT "ExactAudioCopy v1.0b3"
PERFORMER "Blind Guardian"
TITLE "A Night At The Opera"
FILE "Blind Guardian - A Night At The Opera.flac" WAVE
  TRACK 01 AUDIO
    TITLE "Precious Jerusalem"
    PERFORMER "Blind Guardian"
    FLAGS DCP
    INDEX 01 00:00:00
  TRACK 02 AUDIO
    TITLE "Battlefield"
    PERFORMER "Blind Guardian"
    FLAGS DCP
    INDEX 00 06:19:61
    INDEX 01 06:21:15
  TRACK 03 AUDIO
    TITLE "Under The Ice"
    PERFORMER "Blind Guardian"
    FLAGS DCP
    INDEX 00 11:56:46
    INDEX 01 11:58:00
  TRACK 04 AUDIO
    TITLE "Sadly Sings Destiny"
    PERFORMER "Blind Guardian"
    FLAGS DCP
    INDEX 00 17:40:46
    INDEX 01 17:42:45
  TRACK 05 AUDIO
    TITLE "The Maiden And The Minstrel Knight"
    PERFORMER "Blind Guardian"
    FLAGS DCP
    INDEX 00 23:45:02
    INDEX 01 23:47:01
  TRACK 06 AUDIO
    TITLE "Wait For An Answer"
    PERFORMER "Blind Guardian"
    FLAGS DCP
    INDEX 00 29:15:12
    INDEX 01 29:17:11
  TRACK 07 AUDIO
    TITLE "The Soulforged"
    PERFORMER "Blind Guardian"
    FLAGS DCP
    INDEX 00 35:45:26
    INDEX 01 35:47:25
  TRACK 08 AUDIO
    TITLE "Age Of False Innocence"
    PERFORMER "Blind Guardian"
    FLAGS DCP
    INDEX 00 41:03:47
    INDEX 01 41:05:46
  TRACK 09 AUDIO
    TITLE "Punishment Divine"
    PERFORMER "Blind Guardian"
    FLAGS DCP
    INDEX 00 47:08:57
    INDEX 01 47:10:11
  TRACK 10 AUDIO
    TITLE "And Then There Was Silence"
    PERFORMER "Blind Guardian"
    FLAGS DCP
    INDEX 00 52:49:62
    INDEX 01 52:53:61

2003 - Live 2CD

CD 1 (01:04:31)

- 01. War Of Wrath (01:54)
02. Into The Storm (04:52)
03. Welcome To Dying (05:28)
04. Nightfall (06:20)
05. The Script For My Requiem (06:38)
06. Harvest Of Sorrow (03:56)
07. The Soulforged (06:03)
08. Valhalla (08:12)
09. Majesty (08:19)
10. Mordred's Song (06:46)
11. Born In A Mourning Hall (05:57)

лог создания рипа

Exact Audio Copy V1.0 beta 3 from 29. August 2011
EAC extraction logfile from 2. April 2013, 21:00
Blind Guardian / Live 1
Used drive  : PLEXTOR BD-R  PX-B950SA   Adapter: 6  ID: 0
Read mode               : Secure
Utilize accurate stream : Yes
Defeat audio cache      : Yes
Make use of C2 pointers : No
Read offset correction                      : 6
Overread into Lead-In and Lead-Out          : No
Fill up missing offset samples with silence : Yes
Delete leading and trailing silent blocks   : No
Null samples used in CRC calculations       : Yes
Used interface                              : Native Win32 interface for Win NT & 2000
Used output format : Internal WAV Routines
Sample format      : 44.100 Hz; 16 Bit; Stereo
TOC of the extracted CD
     Track |   Start  |  Length  | Start sector | End sector
    ---------------------------------------------------------
        1  |  0:00.00 |  1:54.18 |         0    |     8567
        2  |  1:54.18 |  4:52.12 |      8568    |    30479
        3  |  6:46.30 |  5:28.70 |     30480    |    55149
        4  | 12:15.25 |  6:20.70 |     55150    |    83719
        5  | 18:36.20 |  6:38.03 |     83720    |   113572
        6  | 25:14.23 |  3:56.29 |    113573    |   131301
        7  | 29:10.52 |  6:03.21 |    131302    |   158547
        8  | 35:13.73 |  8:12.64 |    158548    |   195511
        9  | 43:26.62 |  8:19.67 |    195512    |   233003
       10  | 51:46.54 |  6:46.66 |    233004    |   263519
       11  | 58:33.45 |  5:57.61 |    263520    |   290355
Range status and errors
Selected range
     Filename C:\Users\Meijin\Desktop\Lossless Galaxy ALLexxess\Blind Guardian\2013 A Traveler's Guide To Space And Time (15CD Box Set EMI Music Germany)\2003 Live 2CD Set\CD1\Blind Guardian - Live 1.wav
     Peak level 98.8 %
     Extraction speed 7.7 X
     Range quality 100.0 %
     Test CRC EB809A55
     Copy CRC EB809A55
     Copy OK
No errors occurred
AccurateRip summary
Track  1  accurately ripped (confidence 1)  [5198FDA3]  (AR v2)
Track  2  accurately ripped (confidence 1)  [DEE2C5A3]  (AR v2)
Track  3  accurately ripped (confidence 1)  [49C2576E]  (AR v2)
Track  4  accurately ripped (confidence 1)  [5F1441BB]  (AR v2)
Track  5  accurately ripped (confidence 1)  [499DED70]  (AR v2)
Track  6  accurately ripped (confidence 1)  [4B821BEC]  (AR v2)
Track  7  accurately ripped (confidence 1)  [BA7E5285]  (AR v2)
Track  8  accurately ripped (confidence 1)  [AEC36291]  (AR v2)
Track  9  accurately ripped (confidence 1)  [8B9AC503]  (AR v2)
Track 10  accurately ripped (confidence 1)  [0235FBC5]  (AR v2)
Track 11  accurately ripped (confidence 1)  [BDAAF849]  (AR v2)
All tracks accurately ripped
End of status report

содержание индексной карты *cue

REM GENRE Metal
REM DATE 2003
REM DISCID 810F1F0B
REM COMMENT "ExactAudioCopy v1.0b3"
PERFORMER "Blind Guardian"
TITLE "Live 1"
FILE "Blind Guardian - Live 1.flac" WAVE
  TRACK 01 AUDIO
    TITLE "War Of Wrath"
    PERFORMER "Blind Guardian"
    FLAGS DCP
    INDEX 01 00:00:00
  TRACK 02 AUDIO
    TITLE "Into The Storm"
    PERFORMER "Blind Guardian"
    FLAGS DCP
    INDEX 01 01:54:18
  TRACK 03 AUDIO
    TITLE "Welcome To Dying"
    PERFORMER "Blind Guardian"
    FLAGS DCP
    INDEX 01 06:46:30
  TRACK 04 AUDIO
    TITLE "Nightfall"
    PERFORMER "Blind Guardian"
    FLAGS DCP
    INDEX 01 12:15:25
  TRACK 05 AUDIO
    TITLE "The Script For My Requiem"
    PERFORMER "Blind Guardian"
    FLAGS DCP
    INDEX 01 18:36:20
  TRACK 06 AUDIO
    TITLE "Harvest Of Sorrow"
    PERFORMER "Blind Guardian"
    FLAGS DCP
    INDEX 01 25:14:23
  TRACK 07 AUDIO
    TITLE "The Soulforged"
    PERFORMER "Blind Guardian"
    FLAGS DCP
    INDEX 01 29:10:52
  TRACK 08 AUDIO
    TITLE "Valhalla"
    PERFORMER "Blind Guardian"
    FLAGS DCP
    INDEX 01 35:13:73
  TRACK 09 AUDIO
    TITLE "Majesty"
    PERFORMER "Blind Guardian"
    FLAGS DCP
    INDEX 01 43:26:62
  TRACK 10 AUDIO
    TITLE "Mordred's Song"
    PERFORMER "Blind Guardian"
    FLAGS DCP
    INDEX 01 51:46:54
  TRACK 11 AUDIO
    TITLE "Born In A Mourning Hall"
    PERFORMER "Blind Guardian"
    FLAGS DCP
    INDEX 01 58:33:45

CD 2 01:09:30)

- 01. Under The Ice (06:14)
02. Bright Eyes (05:26)
03. Punishment Divine (06:21)
04. The Bard's Song (In The Forest) (07:48)
05. Imaginations From The Other Side (09:40)
06. Lost In The Twilight Hall (07:09)
07. A Past And Future Secret (04:31)
08. Time Stands Still (At The Iron Hill) (05:52)
09. Journey Through The Dark (05:43)
10. Lord Of The Rings (04:35)
11. Mirror Mirror (06:06)

лог создания рипа

Exact Audio Copy V1.0 beta 3 from 29. August 2011
EAC extraction logfile from 2. April 2013, 20:23
Blind Guardian / Live 2
Used drive  : PLEXTOR BD-R  PX-B950SA   Adapter: 6  ID: 0
Read mode               : Secure
Utilize accurate stream : Yes
Defeat audio cache      : Yes
Make use of C2 pointers : No
Read offset correction                      : 6
Overread into Lead-In and Lead-Out          : No
Fill up missing offset samples with silence : Yes
Delete leading and trailing silent blocks   : No
Null samples used in CRC calculations       : Yes
Used interface                              : Native Win32 interface for Win NT & 2000
Used output format : Internal WAV Routines
Sample format      : 44.100 Hz; 16 Bit; Stereo
TOC of the extracted CD
     Track |   Start  |  Length  | Start sector | End sector
    ---------------------------------------------------------
        1  |  0:00.00 |  6:14.68 |         0    |    28117
        2  |  6:14.68 |  5:26.55 |     28118    |    52622
        3  | 11:41.48 |  6:21.05 |     52623    |    81202
        4  | 18:02.53 |  7:48.02 |     81203    |   116304
        5  | 25:50.55 |  9:40.51 |    116305    |   159855
        6  | 35:31.31 |  7:09.38 |    159856    |   192068
        7  | 42:40.69 |  4:31.72 |    192069    |   212465
        8  | 47:12.66 |  5:52.66 |    212466    |   238931
        9  | 53:05.57 |  5:43.49 |    238932    |   264705
       10  | 58:49.31 |  4:35.01 |    264706    |   285331
       11  | 63:24.32 |  6:06.03 |    285332    |   312784
Range status and errors
Selected range
     Filename C:\Users\Meijin\Desktop\Lossless Galaxy ALLexxess\Blind Guardian\2013 A Traveler's Guide To Space And Time (15CD Box Set EMI Music Germany)\2003 Live 2CD Set\CD2\Blind Guardian - Live 2.wav
     Peak level 98.8 %
     Extraction speed 7.7 X
     Range quality 100.0 %
     Test CRC 164E3D9F
     Copy CRC 164E3D9F
     Copy OK
No errors occurred
AccurateRip summary
Track  1  accurately ripped (confidence 1)  [F0ABCEC7]  (AR v2)
Track  2  accurately ripped (confidence 1)  [10486EDB]  (AR v2)
Track  3  accurately ripped (confidence 1)  [AD777A4B]  (AR v2)
Track  4  accurately ripped (confidence 1)  [11810628]  (AR v2)
Track  5  accurately ripped (confidence 1)  [5A44F232]  (AR v2)
Track  6  accurately ripped (confidence 1)  [95A83D97]  (AR v2)
Track  7  accurately ripped (confidence 1)  [F01350C9]  (AR v2)
Track  8  accurately ripped (confidence 1)  [74081029]  (AR v2)
Track  9  accurately ripped (confidence 1)  [51F98A03]  (AR v2)
Track 10  accurately ripped (confidence 1)  [ACD627FF]  (AR v2)
Track 11  accurately ripped (confidence 1)  [5D1352C5]  (AR v2)
All tracks accurately ripped
End of status report

содержание индексной карты *cue

REM GENRE Metal
REM DATE 2003
REM DISCID 8F104A0B
REM COMMENT "ExactAudioCopy v1.0b3"
PERFORMER "Blind Guardian"
TITLE "Live 2"
FILE "Blind Guardian - Live 2.flac" WAVE
  TRACK 01 AUDIO
    TITLE "Under The Ice"
    PERFORMER "Blind Guardian"
    FLAGS DCP
    INDEX 01 00:00:00
  TRACK 02 AUDIO
    TITLE "Bright Eyes"
    PERFORMER "Blind Guardian"
    FLAGS DCP
    INDEX 01 06:14:68
  TRACK 03 AUDIO
    TITLE "Punishment Divine"
    PERFORMER "Blind Guardian"
    FLAGS DCP
    INDEX 01 11:41:48
  TRACK 04 AUDIO
    TITLE "The Bard's Song (In The Forest)"
    PERFORMER "Blind Guardian"
    FLAGS DCP
    INDEX 01 18:02:53
  TRACK 05 AUDIO
    TITLE "Imaginations From The Other Side"
    PERFORMER "Blind Guardian"
    FLAGS DCP
    INDEX 01 25:50:55
  TRACK 06 AUDIO
    TITLE "Lost In The Twilight Hall"
    PERFORMER "Blind Guardian"
    FLAGS DCP
    INDEX 01 35:31:31
  TRACK 07 AUDIO
    TITLE "A Past And Future Secret"
    PERFORMER "Blind Guardian"
    FLAGS DCP
    INDEX 01 42:40:69
  TRACK 08 AUDIO
    TITLE "Time Stands Still (At The Iron Hill)"
    PERFORMER "Blind Guardian"
    FLAGS DCP
    INDEX 01 47:12:66
  TRACK 09 AUDIO
    TITLE "Journey Through The Dark"
    PERFORMER "Blind Guardian"
    FLAGS DCP
    INDEX 01 53:05:57
  TRACK 10 AUDIO
    TITLE "Lord Of The Rings"
    PERFORMER "Blind Guardian"
    FLAGS DCP
    INDEX 01 58:49:31
  TRACK 11 AUDIO
    TITLE "Mirror Mirror"
    PERFORMER "Blind Guardian"
    FLAGS DCP
    INDEX 01 63:24:32

2004 - Imaginations Through The Looking Glass 2CD

CD 1 (01:02:04)

- 01. War Of Wrath (01:10)
02. Time Stands Still (At The Iron Hill) (05:16)
03. Banish From Sanctuary (06:09)
04. Nightfall (05:49)
05. The Script For My Requiem (06:11)
06. Valhalla (08:28)
07. A Past And Future Secret (04:02)
08. Punishment Divine (06:07)
09. Mordred's Song (05:53)
10. The Last Candle (07:33)
11. Bright Eyes (05:23)

лог создания рипа

Exact Audio Copy V1.0 beta 3 from 29. August 2011
EAC extraction logfile from 2. April 2013, 19:45
Blind Guardian / Imaginations Through The Looking Glass 1
Used drive  : PLEXTOR BD-R  PX-B950SA   Adapter: 6  ID: 0
Read mode               : Secure
Utilize accurate stream : Yes
Defeat audio cache      : Yes
Make use of C2 pointers : No
Read offset correction                      : 6
Overread into Lead-In and Lead-Out          : No
Fill up missing offset samples with silence : Yes
Delete leading and trailing silent blocks   : No
Null samples used in CRC calculations       : Yes
Used interface                              : Native Win32 interface for Win NT & 2000
Used output format : Internal WAV Routines
Sample format      : 44.100 Hz; 16 Bit; Stereo
TOC of the extracted CD
     Track |   Start  |  Length  | Start sector | End sector
    ---------------------------------------------------------
        1  |  0:00.00 |  1:10.25 |         0    |     5274
        2  |  1:10.25 |  5:16.63 |      5275    |    29037
        3  |  6:27.13 |  6:09.33 |     29038    |    56745
        4  | 12:36.46 |  5:49.37 |     56746    |    82957
        5  | 18:26.08 |  6:11.09 |     82958    |   110791
        6  | 24:37.17 |  8:28.33 |    110792    |   148924
        7  | 33:05.50 |  4:02.11 |    148925    |   167085
        8  | 37:07.61 |  6:07.00 |    167086    |   194610
        9  | 43:14.61 |  5:53.21 |    194611    |   221106
       10  | 49:08.07 |  7:33.10 |    221107    |   255091
       11  | 56:41.17 |  5:23.05 |    255092    |   279321
Range status and errors
Selected range
     Filename C:\Users\Meijin\Desktop\Lossless Galaxy ALLexxess\Blind Guardian\2013 A Traveler's Guide (15CD Box Set EMI Music Germany)\2004 Imaginations Through The Looking Glass 2CD Set\CD1\Blind Guardian - Imaginations Through The Looking Glass 1.wav
     Peak level 98.8 %
     Extraction speed 7.6 X
     Range quality 100.0 %
     Test CRC 79CA355D
     Copy CRC 79CA355D
     Copy OK
No errors occurred
AccurateRip summary
Track  1  accurately ripped (confidence 1)  [8D4171AD]  (AR v2)
Track  2  accurately ripped (confidence 1)  [CB0A5736]  (AR v2)
Track  3  accurately ripped (confidence 1)  [FD1AEF0B]  (AR v2)
Track  4  accurately ripped (confidence 1)  [058370A1]  (AR v2)
Track  5  accurately ripped (confidence 1)  [70E0C732]  (AR v2)
Track  6  accurately ripped (confidence 1)  [1275F3B9]  (AR v2)
Track  7  accurately ripped (confidence 1)  [CECEC96E]  (AR v2)
Track  8  accurately ripped (confidence 1)  [1A395289]  (AR v2)
Track  9  accurately ripped (confidence 1)  [1DEF2454]  (AR v2)
Track 10  accurately ripped (confidence 1)  [FC81A4A1]  (AR v2)
Track 11  accurately ripped (confidence 1)  [1AB6C2EA]  (AR v2)
All tracks accurately ripped
End of status report

содержание индексной карты *cue

REM GENRE Metal
REM DATE 2004
REM DISCID AA0E8C0B
REM COMMENT "ExactAudioCopy v1.0b3"
PERFORMER "Blind Guardian"
TITLE "Imaginations Through The Looking Glass 1"
FILE "Blind Guardian - Imaginations Through The Looking Glass 1.flac" WAVE
  TRACK 01 AUDIO
    TITLE "War Of Wrath"
    PERFORMER "Blind Guardian"
    FLAGS DCP
    INDEX 01 00:00:00
  TRACK 02 AUDIO
    TITLE "Time Stands Still (At The Iron Hill)"
    PERFORMER "Blind Guardian"
    FLAGS DCP
    INDEX 01 01:10:25
  TRACK 03 AUDIO
    TITLE "Banish From Sanctuary"
    PERFORMER "Blind Guardian"
    FLAGS DCP
    INDEX 01 06:27:13
  TRACK 04 AUDIO
    TITLE "Nightfall"
    PERFORMER "Blind Guardian"
    FLAGS DCP
    INDEX 01 12:36:46
  TRACK 05 AUDIO
    TITLE "The Script For My Requiem"
    PERFORMER "Blind Guardian"
    FLAGS DCP
    INDEX 01 18:26:08
  TRACK 06 AUDIO
    TITLE "Valhalla"
    PERFORMER "Blind Guardian"
    FLAGS DCP
    INDEX 01 24:37:17
  TRACK 07 AUDIO
    TITLE "A Past And Future Secret"
    PERFORMER "Blind Guardian"
    FLAGS DCP
    INDEX 01 33:05:50
  TRACK 08 AUDIO
    TITLE "Punishment Divine"
    PERFORMER "Blind Guardian"
    FLAGS DCP
    INDEX 01 37:07:61
  TRACK 09 AUDIO
    TITLE "Mordred's Song"
    PERFORMER "Blind Guardian"
    FLAGS DCP
    INDEX 01 43:14:61
  TRACK 10 AUDIO
    TITLE "The Last Candle"
    PERFORMER "Blind Guardian"
    FLAGS DCP
    INDEX 01 49:08:07
  TRACK 11 AUDIO
    TITLE "Bright Eyes"
    PERFORMER "Blind Guardian"
    FLAGS DCP
    INDEX 01 56:41:17

CD 2 (01:02:18)

- 01. Lord Of The Rings (04:41)
02. I'm Alive (05:46)
03. Another Holy War (05:00)
04. And Then There Was Silence (13:02)
05. Somewhere Far Beyond (08:59)
06. The Bard's Song (In The Forest) (03:38)
07. Imaginations From The Other Side (07:58)
08. And The Story Ends (06:14)
09. Mirror Mirror (06:56)

лог создания рипа

Exact Audio Copy V1.0 beta 3 from 29. August 2011
EAC extraction logfile from 1. April 2013, 23:08
Blind Guardian / Imaginations Through The Looking Glass 2
Used drive  : PLEXTOR BD-R  PX-B950SA   Adapter: 6  ID: 0
Read mode               : Secure
Utilize accurate stream : Yes
Defeat audio cache      : Yes
Make use of C2 pointers : No
Read offset correction                      : 6
Overread into Lead-In and Lead-Out          : No
Fill up missing offset samples with silence : Yes
Delete leading and trailing silent blocks   : No
Null samples used in CRC calculations       : Yes
Used interface                              : Native Win32 interface for Win NT & 2000
Used output format : Internal WAV Routines
Sample format      : 44.100 Hz; 16 Bit; Stereo
TOC of the extracted CD
     Track |   Start  |  Length  | Start sector | End sector
    ---------------------------------------------------------
        1  |  0:00.00 |  4:41.70 |         0    |    21144
        2  |  4:41.70 |  5:46.44 |     21145    |    47138
        3  | 10:28.39 |  5:00.06 |     47139    |    69644
        4  | 15:28.45 | 13:02.32 |     69645    |   128326
        5  | 28:31.02 |  8:59.17 |    128327    |   168768
        6  | 37:30.19 |  3:38.70 |    168769    |   185188
        7  | 41:09.14 |  7:58.64 |    185189    |   221102
        8  | 49:08.03 |  6:14.19 |    221103    |   249171
        9  | 55:22.22 |  6:56.01 |    249172    |   280372
Range status and errors
Selected range
     Filename C:\Users\Meijin\Desktop\Lossless Galaxy ALLexxess\Blind Guardian\2013 A Traveler's Guide (15CD Box Set EMI Music Germany)\2004 Imaginations Through The Looking Glass 2CD Set\CD2\Blind Guardian - Imaginations Through The Looking Glass 2.wav
     Peak level 98.8 %
     Extraction speed 7.5 X
     Range quality 99.9 %
     Test CRC B76A763C
     Copy CRC B76A763C
     Copy OK
No errors occurred
AccurateRip summary
Track  1  accurately ripped (confidence 1)  [9B8FB15D]  (AR v2)
Track  2  accurately ripped (confidence 1)  [645E12F9]  (AR v2)
Track  3  accurately ripped (confidence 1)  [E183BB25]  (AR v2)
Track  4  accurately ripped (confidence 1)  [5B9FEB15]  (AR v2)
Track  5  accurately ripped (confidence 1)  [4236A24F]  (AR v2)
Track  6  accurately ripped (confidence 1)  [655D44AA]  (AR v2)
Track  7  accurately ripped (confidence 1)  [AED5597D]  (AR v2)
Track  8  accurately ripped (confidence 1)  [D6DD4C1E]  (AR v2)
Track  9  accurately ripped (confidence 1)  [911CEAA3]  (AR v2)
All tracks accurately ripped
End of status report

содержание индексной карты *cue

REM GENRE Metal
REM DATE 2004
REM DISCID 650E9A09
REM COMMENT "ExactAudioCopy v1.0b3"
PERFORMER "Blind Guardian"
TITLE "Imaginations Through The Looking Glass 2"
FILE "Blind Guardian - Imaginations Through The Looking Glass 2.flac" WAVE
  TRACK 01 AUDIO
    TITLE "Lord Of The Rings"
    PERFORMER "Blind Guardian"
    FLAGS DCP
    INDEX 01 00:00:00
  TRACK 02 AUDIO
    TITLE "I'm Alive"
    PERFORMER "Blind Guardian"
    FLAGS DCP
    INDEX 01 04:41:70
  TRACK 03 AUDIO
    TITLE "Another Holy War"
    PERFORMER "Blind Guardian"
    FLAGS DCP
    INDEX 01 10:28:39
  TRACK 04 AUDIO
    TITLE "And Then There Was Silence"
    PERFORMER "Blind Guardian"
    FLAGS DCP
    INDEX 01 15:28:45
  TRACK 05 AUDIO
    TITLE "Somewhere Far Beyond"
    PERFORMER "Blind Guardian"
    FLAGS DCP
    INDEX 01 28:31:02
  TRACK 06 AUDIO
    TITLE "The Bard's Song (In The Forest)"
    PERFORMER "Blind Guardian"
    FLAGS DCP
    INDEX 01 37:30:19
  TRACK 07 AUDIO
    TITLE "Imaginations From The Other Side"
    PERFORMER "Blind Guardian"
    FLAGS DCP
    INDEX 01 41:09:14
  TRACK 08 AUDIO
    TITLE "And The Story Ends"
    PERFORMER "Blind Guardian"
    FLAGS DCP
    INDEX 01 49:08:03
  TRACK 09 AUDIO
    TITLE "Mirror Mirror"
    PERFORMER "Blind Guardian"
    FLAGS DCP
    INDEX 01 55:22:22

2013 - An Extraordinary Tale (00:38:05)

- 01. Welcome To Dying (Demo) (04:45)
02. Lord Of The Rings (Demo) (02:49)
03. The Bard's Song (In The Forest) (Demo) (03:00)
04. The Bard's Song (The Hobbit) (Demo) (03:47)
05. Theatre Of Pain (Demo) (04:08)
06. Trial By Fire (Demo) (03:47)
07. The Quest For Tanelorn (Extended Version) (06:44)
08. Harvest Of Sorrow (03:40)
09. I'm Alive (Demo) (05:19)

лог создания рипа

Exact Audio Copy V1.0 beta 3 from 29. August 2011
EAC extraction logfile from 1. April 2013, 21:54
Blind Guardian / An Extraordinary Tale
Used drive  : PLEXTOR BD-R  PX-B950SA   Adapter: 6  ID: 0
Read mode               : Secure
Utilize accurate stream : Yes
Defeat audio cache      : Yes
Make use of C2 pointers : No
Read offset correction                      : 6
Overread into Lead-In and Lead-Out          : No
Fill up missing offset samples with silence : Yes
Delete leading and trailing silent blocks   : No
Null samples used in CRC calculations       : Yes
Used interface                              : Native Win32 interface for Win NT & 2000
Used output format : Internal WAV Routines
Sample format      : 44.100 Hz; 16 Bit; Stereo
TOC of the extracted CD
     Track |   Start  |  Length  | Start sector | End sector
    ---------------------------------------------------------
        1  |  0:00.00 |  4:45.45 |         0    |    21419
        2  |  4:45.45 |  2:49.73 |     21420    |    34167
        3  |  7:35.43 |  3:00.34 |     34168    |    47701
        4  | 10:36.02 |  3:47.18 |     47702    |    64744
        5  | 14:23.20 |  4:08.13 |     64745    |    83357
        6  | 18:31.33 |  3:47.62 |     83358    |   100444
        7  | 22:19.20 |  6:44.73 |    100445    |   130817
        8  | 29:04.18 |  3:40.69 |    130818    |   147386
        9  | 32:45.12 |  5:19.73 |    147387    |   171384
Range status and errors
Selected range
     Filename C:\Users\Meijin\Desktop\Lossless Galaxy ALLexxess\Blind Guardian\2013 A Traveler's Guide To Space And Time (15CD Box Set EMI Music Germany)\2013 An Extraordinary Tale\Blind Guardian - An Extraordinary Tale.wav
     Peak level 98.8 %
     Extraction speed 6.5 X
     Range quality 99.9 %
     Test CRC 0B41BC2A
     Copy CRC 0B41BC2A
     Copy OK
No errors occurred
AccurateRip summary
Track  1  not present in database
Track  2  not present in database
Track  3  not present in database
Track  4  not present in database
Track  5  not present in database
Track  6  not present in database
Track  7  not present in database
Track  8  not present in database
Track  9  not present in database
None of the tracks are present in the AccurateRip database
End of status report

содержание индексной карты *cue

EM GENRE Metal
REM DATE 2013
REM DISCID 7F08ED09
REM COMMENT "ExactAudioCopy v1.0b3"
PERFORMER "Blind Guardian"
TITLE "An Extraordinary Tale"
FILE "Blind Guardian - An Extraordinary Tale.flac" WAVE
  TRACK 01 AUDIO
    TITLE "Welcome To Dying (Demo)"
    PERFORMER "Blind Guardian"
    FLAGS DCP
    INDEX 01 00:00:00
  TRACK 02 AUDIO
    TITLE "Lord Of The Rings (Demo)"
    PERFORMER "Blind Guardian"
    FLAGS DCP
    INDEX 00 04:43:46
    INDEX 01 04:45:45
  TRACK 03 AUDIO
    TITLE "The Bard's Song (In The Forest) (Demo)"
    PERFORMER "Blind Guardian"
    FLAGS DCP
    INDEX 00 07:33:44
    INDEX 01 07:35:43
  TRACK 04 AUDIO
    TITLE "The Bard's Song (The Hobbit) (Demo)"
    PERFORMER "Blind Guardian"
    FLAGS DCP
    INDEX 00 10:34:03
    INDEX 01 10:36:02
  TRACK 05 AUDIO
    TITLE "Theatre Of Pain (Demo)"
    PERFORMER "Blind Guardian"
    FLAGS DCP
    INDEX 00 14:21:21
    INDEX 01 14:23:20
  TRACK 06 AUDIO
    TITLE "Trial By Fire (Demo)"
    PERFORMER "Blind Guardian"
    FLAGS DCP
    INDEX 00 18:29:34
    INDEX 01 18:31:33
  TRACK 07 AUDIO
    TITLE "The Quest For Tanelorn (Extended Version)"
    PERFORMER "Blind Guardian"
    FLAGS DCP
    INDEX 00 22:17:21
    INDEX 01 22:19:20
  TRACK 08 AUDIO
    TITLE "Harvest Of Sorrow"
    PERFORMER "Blind Guardian"
    FLAGS DCP
    INDEX 00 29:02:19
    INDEX 01 29:04:18
  TRACK 09 AUDIO
    TITLE "I'm Alive (Demo)"
    PERFORMER "Blind Guardian"
    FLAGS DCP
    INDEX 00 32:43:13
    INDEX 01 32:45:12

2013 - Nightfall In Middle-Earth SE (00:59:11)

- 01. Into The Storm (04:29)
02. Nightfall (05:36)
03. The Curse Of Feanor (05:46)
04. Blood Tears (New Vocal Mix 2012) (05:26)
05. Mirror Mirror (05:10)
06. Noldor (Dead Winter Reigns) (06:54)
07. Time Stands Still (At The Iron Hill) (04:58)
08. Thorn (06:20)
09. The Eldar (03:47)
10. When Sorrow Sang (04:30)
11. A Dark Passage (06:10)

лог создания рипа

Exact Audio Copy V1.0 beta 3 from 29. August 2011
EAC extraction logfile from 1. April 2013, 22:30
Blind Guardian / Nightfall In Middle-Earth SE
Used drive  : PLEXTOR BD-R  PX-B950SA   Adapter: 6  ID: 0
Read mode               : Secure
Utilize accurate stream : Yes
Defeat audio cache      : Yes
Make use of C2 pointers : No
Read offset correction                      : 6
Overread into Lead-In and Lead-Out          : No
Fill up missing offset samples with silence : Yes
Delete leading and trailing silent blocks   : No
Null samples used in CRC calculations       : Yes
Used interface                              : Native Win32 interface for Win NT & 2000
Used output format : Internal WAV Routines
Sample format      : 44.100 Hz; 16 Bit; Stereo
TOC of the extracted CD
     Track |   Start  |  Length  | Start sector | End sector
    ---------------------------------------------------------
        1  |  0:00.00 |  4:29.28 |         0    |    20202
        2  |  4:29.28 |  5:36.51 |     20203    |    45453
        3  | 10:06.04 |  5:46.68 |     45454    |    71471
        4  | 15:52.72 |  5:26.07 |     71472    |    95928
        5  | 21:19.04 |  5:10.32 |     95929    |   119210
        6  | 26:29.36 |  6:54.16 |    119211    |   150276
        7  | 33:23.52 |  4:58.20 |    150277    |   172646
        8  | 38:21.72 |  6:20.31 |    172647    |   201177
        9  | 44:42.28 |  3:47.46 |    201178    |   218248
       10  | 48:29.74 |  4:30.65 |    218249    |   238563
       11  | 53:00.64 |  6:10.29 |    238564    |   266342
Range status and errors
Selected range
     Filename C:\Users\Meijin\Desktop\Lossless Galaxy ALLexxess\Blind Guardian\2013 A Traveler's Guide To Space And Time (15CD Box Set EMI Music Germany)\2013 Nightfall In Middle-Earth (Special Edition)\Blind Guardian - Nightfall In Middle-Earth SE.wav
     Peak level 98.8 %
     Extraction speed 7.5 X
     Range quality 100.0 %
     Test CRC 75F9B693
     Copy CRC 75F9B693
     Copy OK
No errors occurred
AccurateRip summary
Track  1  accurately ripped (confidence 1)  [8C9051E1]  (AR v2)
Track  2  accurately ripped (confidence 1)  [F6E4600C]  (AR v2)
Track  3  accurately ripped (confidence 1)  [3D7E717D]  (AR v2)
Track  4  accurately ripped (confidence 1)  [CCE06F31]  (AR v2)
Track  5  accurately ripped (confidence 1)  [C6C19CAB]  (AR v2)
Track  6  accurately ripped (confidence 1)  [E1B771D8]  (AR v2)
Track  7  accurately ripped (confidence 1)  [DA4CEDD1]  (AR v2)
Track  8  accurately ripped (confidence 1)  [0C48052D]  (AR v2)
Track  9  accurately ripped (confidence 1)  [FF4AA828]  (AR v2)
Track 10  accurately ripped (confidence 1)  [A3850DD7]  (AR v2)
Track 11  accurately ripped (confidence 1)  [8AAEA1BF]  (AR v2)
All tracks accurately ripped
End of status report

содержание индексной карты *cue

REM GENRE Metal
REM DATE 2013
REM DISCID 860DDF0B
REM COMMENT "ExactAudioCopy v1.0b3"
PERFORMER "Blind Guardian"
TITLE "Nightfall In Middle-Earth SE"
FILE "Blind Guardian - Nightfall In Middle-Earth SE.flac" WAVE
  TRACK 01 AUDIO
    TITLE "Into The Storm"
    PERFORMER "Blind Guardian"
    FLAGS DCP
    INDEX 01 00:00:00
  TRACK 02 AUDIO
    TITLE "Nightfall"
    PERFORMER "Blind Guardian"
    FLAGS DCP
    INDEX 00 04:27:28
    INDEX 01 04:29:28
  TRACK 03 AUDIO
    TITLE "The Curse Of Feanor"
    PERFORMER "Blind Guardian"
    FLAGS DCP
    INDEX 00 10:04:05
    INDEX 01 10:06:04
  TRACK 04 AUDIO
    TITLE "Blood Tears (New Vocal Mix 2012)"
    PERFORMER "Blind Guardian"
    FLAGS DCP
    INDEX 00 15:50:73
    INDEX 01 15:52:72
  TRACK 05 AUDIO
    TITLE "Mirror Mirror"
    PERFORMER "Blind Guardian"
    FLAGS DCP
    INDEX 00 21:17:04
    INDEX 01 21:19:04
  TRACK 06 AUDIO
    TITLE "Noldor (Dead Winter Reigns)"
    PERFORMER "Blind Guardian"
    FLAGS DCP
    INDEX 00 26:27:37
    INDEX 01 26:29:36
  TRACK 07 AUDIO
    TITLE "Time Stands Still (At The Iron Hill)"
    PERFORMER "Blind Guardian"
    FLAGS DCP
    INDEX 00 33:21:52
    INDEX 01 33:23:52
  TRACK 08 AUDIO
    TITLE "Thorn"
    PERFORMER "Blind Guardian"
    FLAGS DCP
    INDEX 00 38:19:73
    INDEX 01 38:21:72
  TRACK 09 AUDIO
    TITLE "The Eldar"
    PERFORMER "Blind Guardian"
    FLAGS DCP
    INDEX 00 44:40:29
    INDEX 01 44:42:28
  TRACK 10 AUDIO
    TITLE "When Sorrow Sang"
    PERFORMER "Blind Guardian"
    FLAGS DCP
    INDEX 00 48:27:74
    INDEX 01 48:29:74
  TRACK 11 AUDIO
    TITLE "A Dark Passage"
    PERFORMER "Blind Guardian"
    FLAGS DCP
    INDEX 00 52:58:65
    INDEX 01 53:00:64
[Профиль] [ЛС]
Показать сообщения:    

Текущее время: Сегодня 14:02

Часовой пояс: GMT



Вы не можете начинать темы
Вы не можете отвечать на сообщения
Вы не можете редактировать свои сообщения
Вы не можете удалять свои сообщения
Вы не можете голосовать в опросах
Вы не можете прикреплять файлы к сообщениям
Вы не можете скачивать файлы