(Heavy Mtal)Black Sabbath - Dehumanizer (1992) 2CD Deluxe Expanded Edition, Remastered 2011, FLAC(image+cue),Lossless

 
Автор Сообщение

sergej644 ®

Пол:

Стаж: 4 года 11 месяцев

Сообщений: 6046

Откуда: Soviet Union



Награды: Нет

Торрент-статистика

Создавать темы 16-Ноя-2014 14:28

[Цитировать]

-Black Sabbath - Dehumanizer (1992)-
Год: 1992
Издание: EMI Records Ltd.
Жанр: Heavy Metal/Hard Rock
Источник: Интернет
Кодек: FLAC
Тип рипа: Image+.cue
Битрейт: Lossless
Продолжительность: 01:31:38
Members:
Tony Iommi - Lead Guitar
Geezer Butler - Bass
Ronnie James Dio - Vocals
Vinny Appice - Drums
Geoff Nicholls - Keyboards

CD 1

Кодек: FLAC
Тип рипа: Image+.cue
Битрейт: Lossless
Продолжительность: 00:52:14
Треклист:

01. Computer God (6:15)
02. After All (The Dead) (5:42)
03. TV Crimes (4:03)
04. Letters From Earth (4:17)
05. Master Of Insanity (5:56)
06. Time Machine (4:16)
07. Sins Of The Father (4:47)
08. Too Late (6:55)
09. I (5:13)
10. Buried Alive (4:51)

Содержание индексной карты:

REM GENRE "Heavy Metal"
REM DATE 2011
REM DISCID 8C0C3E0A
REM COMMENT "ExactAudioCopy v0.99pb4"
PERFORMER "Black Sabbath"
TITLE "Dehumanizer (CD1)"
FILE "Black Sabbath - Dehumanizer (CD1).wav" WAVE
  TRACK 01 AUDIO
    TITLE "Computer God"
    PERFORMER "Black Sabbath"
    INDEX 01 00:00:00
  TRACK 02 AUDIO
    TITLE "After All (The Dead)"
    PERFORMER "Black Sabbath"
    INDEX 00 06:13:34
    INDEX 01 06:15:22
  TRACK 03 AUDIO
    TITLE "TV Crimes"
    PERFORMER "Black Sabbath"
    INDEX 01 11:56:72
  TRACK 04 AUDIO
    TITLE "Letters From Earth"
    PERFORMER "Black Sabbath"
    INDEX 00 15:56:65
    INDEX 01 15:59:38
  TRACK 05 AUDIO
    TITLE "Master Of Insanity"
    PERFORMER "Black Sabbath"
    INDEX 00 20:14:03
    INDEX 01 20:16:43
  TRACK 06 AUDIO
    TITLE "Time Machine"
    PERFORMER "Black Sabbath"
    INDEX 01 26:12:07
  TRACK 07 AUDIO
    TITLE "Sins Of The Father"
    PERFORMER "Black Sabbath"
    INDEX 00 30:25:70
    INDEX 01 30:27:54
  TRACK 08 AUDIO
    TITLE "Too Late"
    PERFORMER "Black Sabbath"
    INDEX 00 35:13:14
    INDEX 01 35:14:33
  TRACK 09 AUDIO
    TITLE "I"
    PERFORMER "Black Sabbath"
    INDEX 01 42:09:70
  TRACK 10 AUDIO
    TITLE "Buried Alive"
    PERFORMER "Black Sabbath"
    INDEX 00 47:21:19
    INDEX 01 47:23:13

Лог EAC:

Exact Audio Copy V0.99 prebeta 4 from 23. January 2008
Отчёт EAC об извлечении, выполненном 19. февраля 2011, 20:03
Black Sabbath / Dehumanizer (CD1)
Дисковод: _NEC    DVD_RW ND-3500AG   Adapter: 3  ID: 0
Режим чтения                 : Достоверность
Использование точного потока : Да
Отключение кэша аудио        : Да
Использование указателей C2  : Нет
Коррекция смещения при чтении                     : 48
Способность читать области Lead-in и Lead-out     : Нет
Заполнение пропущенных сэмплов тишиной            : Да
Удаление блоков с тишиной в начале и конце        : Нет
При вычислениях CRC использовались нулевые сэмплы : Да
Интерфейс                                         : Установленный внешний ASPI-интерфейс
Выходной формат : Внутренние WAV-операции
Формат сэмплов  : 44.100 Гц; 16 бит; стерео
TOC извлечённого CD
     Трек |   Старт  | Длительность | Начальный сектор | Конечный сектор
    ---------------------------------------------------------------------
       1  |  0:00.00 |    6:15.22   |           0      |      28146
       2  |  6:15.22 |    5:41.50   |       28147      |      53771
       3  | 11:56.72 |    4:02.41   |       53772      |      71962
       4  | 15:59.38 |    4:17.05   |       71963      |      91242
       5  | 20:16.43 |    5:55.39   |       91243      |     117906
       6  | 26:12.07 |    4:15.47   |      117907      |     137078
       7  | 30:27.54 |    4:46.54   |      137079      |     158582
       8  | 35:14.33 |    6:55.37   |      158583      |     189744
       9  | 42:09.70 |    5:13.18   |      189745      |     213237
      10  | 47:23.13 |    4:51.06   |      213238      |     235068
Характеристики диапазона извлечения и сообщения об ошибках
Выбранный диапазон
     Имя файла D:\Black Sabbath - Dehumanizer (CD1).wav
     Пиковый уровень 97.7 %
     Качество диапазона 99.9 %
     CRC теста B774D025
     CRC копии B774D025
     Копирование... OK
Ошибок не произошло
AccurateRip: сводка
Трек  1  нет в базе данных
Трек  2  нет в базе данных
Трек  3  нет в базе данных
Трек  4  нет в базе данных
Трек  5  нет в базе данных
Трек  6  нет в базе данных
Трек  7  нет в базе данных
Трек  8  нет в базе данных
Трек  9  нет в базе данных
Трек 10  нет в базе данных
Ни одного трека нет в базе AccurateRip
Конец отчёта

Отчёт auCDtect Manager:

-----------------------
DON'T MODIFY THIS FILE
-----------------------
PERFORMER: auCDtect Task Manager, ver. 1.5.1RC4 build 1.5.1.5
Copyright (c) 2008-2010 y-soft. All rights reserved
http://y-soft.org
ANALYZER: auCDtect: CD records authenticity detector, version 0.8.2
Copyright (c) 2004 Oleg Berngardt. All rights reserved.
Copyright (c) 2004 Alexander Djourik. All rights reserved.
FILE: Black Sabbath - Dehumanizer (CD1).flac
  Size: 377930275 Hash: A746A9875E8CDE6D3354EABD1DE00614 Accuracy: -m0
  Conclusion: CDDA 100%
  Signature: C1F9CB9B38B8FAF8CEC220F3FBD3D1A5D45401A4

CD 2

Кодек: FLAC
Тип рипа: Image+.cue
Битрейт: Lossless
Продолжительность: 00:39:24
Треклист:
01. Master Of Insanity (Single Edit) (4:08)
02. Letters From Earth (B-Side Version) (4:42)
03. Time Machine (Wayne's World Version) (4:18)
04. Children Of The Sea (Live) (6:23)
05. Die Young (Live) (2:16)
06. TV Crimes (Live) (4:23)
07. Master Of Insanity (Live & Previously Unreleased) (7:39)
08. Neon Knights (Live) (5:34)

Содержание индексной карты:

REM GENRE "Heavy Metal"
REM DATE 2011
REM DISCID 50093C08
REM COMMENT "ExactAudioCopy v0.99pb4"
PERFORMER "Black Sabbath"
TITLE "Dehumanizer (CD2)"
FILE "Black Sabbath - Dehumanizer (CD2).wav" WAVE
  TRACK 01 AUDIO
    TITLE "Master Of Insanity (Single Edit)"
    PERFORMER "Black Sabbath"
    INDEX 01 00:00:00
  TRACK 02 AUDIO
    TITLE "Letters From Earth (B-Side Version)"
    PERFORMER "Black Sabbath"
    INDEX 01 04:08:35
  TRACK 03 AUDIO
    TITLE "Time Machine (Wayne's World Version)"
    PERFORMER "Black Sabbath"
    INDEX 01 08:50:04
  TRACK 04 AUDIO
    TITLE "Children Of The Sea (Live)"
    PERFORMER "Black Sabbath"
    INDEX 01 13:08:26
  TRACK 05 AUDIO
    TITLE "Die Young (Live)"
    PERFORMER "Black Sabbath"
    INDEX 01 19:30:72
  TRACK 06 AUDIO
    TITLE "TV Crimes (Live)"
    PERFORMER "Black Sabbath"
    INDEX 01 21:47:24
  TRACK 07 AUDIO
    TITLE "Master Of Insanity (Live & Previously Unreleased)"
    PERFORMER "Black Sabbath"
    INDEX 01 26:10:39
  TRACK 08 AUDIO
    TITLE "Neon Knights (Live)"
    PERFORMER "Black Sabbath"
    INDEX 01 33:49:68

Лог EAC:

Exact Audio Copy V0.99 prebeta 4 from 23. January 2008
Отчёт EAC об извлечении, выполненном 19. февраля 2011, 20:44
Black Sabbath / Dehumanizer (CD2)
Дисковод: _NEC    DVD_RW ND-3500AG   Adapter: 3  ID: 0
Режим чтения                 : Достоверность
Использование точного потока : Да
Отключение кэша аудио        : Да
Использование указателей C2  : Нет
Коррекция смещения при чтении                     : 48
Способность читать области Lead-in и Lead-out     : Нет
Заполнение пропущенных сэмплов тишиной            : Да
Удаление блоков с тишиной в начале и конце        : Нет
При вычислениях CRC использовались нулевые сэмплы : Да
Интерфейс                                         : Установленный внешний ASPI-интерфейс
Выходной формат : Внутренние WAV-операции
Формат сэмплов  : 44.100 Гц; 16 бит; стерео
TOC извлечённого CD
     Трек |   Старт  | Длительность | Начальный сектор | Конечный сектор
    ---------------------------------------------------------------------
       1  |  0:00.00 |    4:08.35   |           0      |      18634
       2  |  4:08.35 |    4:41.44   |       18635      |      39753
       3  |  8:50.04 |    4:18.22   |       39754      |      59125
       4  | 13:08.26 |    6:22.46   |       59126      |      87821
       5  | 19:30.72 |    2:16.27   |       87822      |      98048
       6  | 21:47.24 |    4:23.15   |       98049      |     117788
       7  | 26:10.39 |    7:39.29   |      117789      |     152242
       8  | 33:49.68 |    5:34.20   |      152243      |     177312
Характеристики диапазона извлечения и сообщения об ошибках
Выбранный диапазон
     Имя файла D:\Black Sabbath - Dehumanizer (CD2).wav
     Пиковый уровень 97.7 %
     Качество диапазона 99.9 %
     CRC теста CAB27838
     CRC копии CAB27838
     Копирование... OK
Ошибок не произошло
AccurateRip: сводка
Трек  1  нет в базе данных
Трек  2  нет в базе данных
Трек  3  нет в базе данных
Трек  4  нет в базе данных
Трек  5  нет в базе данных
Трек  6  нет в базе данных
Трек  7  нет в базе данных
Трек  8  нет в базе данных
Ни одного трека нет в базе AccurateRip
Конец отчёта

Отчёт auCDtect Manager:

-----------------------
DON'T MODIFY THIS FILE
-----------------------
PERFORMER: auCDtect Task Manager, ver. 1.5.1RC4 build 1.5.1.5
Copyright (c) 2008-2010 y-soft. All rights reserved
http://y-soft.org
ANALYZER: auCDtect: CD records authenticity detector, version 0.8.2
Copyright (c) 2004 Oleg Berngardt. All rights reserved.
Copyright (c) 2004 Alexander Djourik. All rights reserved.
FILE: Black Sabbath - Dehumanizer (CD2).flac
  Size: 291553782 Hash: 8E4FFDE85118C41BA758919083D42864 Accuracy: -m0
  Conclusion: CDDA 100%
  Signature: 2D71959D2B96D7F6C31B9CDB4412CCA35E943772
[Профиль] [ЛС]
Кто просматривает тему:

Показать сообщения:    

Текущее время: Сегодня 04:28

Часовой пояс: GMT



Вы не можете начинать темы
Вы не можете отвечать на сообщения
Вы не можете редактировать свои сообщения
Вы не можете удалять свои сообщения
Вы не можете голосовать в опросах
Вы не можете прикреплять файлы к сообщениям
Вы не можете скачивать файлы