Beth Hart • Rockpalast • Crossroads Festival [2011, Rock, HDTV 720p]

 
Автор Сообщение

reversefile ®

Пол:

Стаж: 4 года 5 месяцев

Сообщений: 842

Откуда: ReverseFile.org



Награды: Нет

Торрент-статистика

Создавать темы 11-Авг-2014 18:53

[Цитировать]


Beth Hart


Жанр: Rock
Продолжительность: 00:43:58
Год выпуска: 2011
Качество: HDTV 720p
Контейнер: TS
Видео кодек: H.264
Аудио кодек: AC3
Видео: MPEG4 Video (H264) 1280x720 50fps 12.5Mbps
Аудио: Dolby AC3 48000Hz stereo 448kbps

Треклист


Beth Hart - vocals, piano
Jon Nicols - guitar, backing vocals
Tom Lilly - bass, backing vocals
Todd Wolf - drums
01. One Eyed Chicken
02. Good As It Gets
03. Monkey Back
04. Waterfalls
05. Delicious Surprise
06. Everybody Is Sober
07. The Ugliest House On The Block
08. Interview
09. Sister Heroine

Отчёт MediaInfo / BDInfo

GeneralID : 1 (0x1)Complete name : L:\Beth Hart - Crossroads Festival 2011.tsFormat : MPEG-TSFile size : 4.19 GiBDuration : 43mn 57sOverall bit rate mode : VariableOverall bit rate : 13.7 Mbps
VideoID : 5421 (0x152D)Menu ID : 1 (0x1)Format : AVCFormat/Info : Advanced Video CodecFormat profile : High@L4.0Format settings, CABAC : YesFormat settings, ReFrames : 4 framesCodec ID : 27Duration : 43mn 57sBit rate : 12.5 MbpsWidth : 1 280 pixelsHeight : 720 pixelsDisplay aspect ratio : 16:9Frame rate : 50.000 fpsColor space : YUVChroma subsampling : 4:2:0Bit depth : 8 bitsScan type : ProgressiveBits/(Pixel*Frame) : 0.272Stream size : 3.85 GiB (92%)
AudioID : 5426 (0x1532)Menu ID : 1 (0x1)Format : AC-3Format/Info : Audio Coding 3Mode extension : CM (complete main)Format settings, Endianness : BigCodec ID : 6Duration : 43mn 57sBit rate mode : ConstantBit rate : 448 KbpsChannel(s) : 2 channelsChannel positions : Front: L RSampling rate : 48.0 KHzBit depth : 16 bitsCompression mode : LossyStream size : 141 MiB (3%)Language : German
[Профиль] [ЛС]
Кто просматривает тему:

Показать сообщения:    

Текущее время: Сегодня 22:22

Часовой пояс: GMT



Вы не можете начинать темы
Вы не можете отвечать на сообщения
Вы не можете редактировать свои сообщения
Вы не можете удалять свои сообщения
Вы не можете голосовать в опросах
Вы не можете прикреплять файлы к сообщениям
Вы не можете скачивать файлы