(Rock,Blues Rock,Hard Rock) Bernie Marsden - Shine - 2014, WAVPack (image + .cue), lossless

 
Автор Сообщение

sergej644 ®

Пол:

Стаж: 4 года 11 месяцев

Сообщений: 6046

Откуда: Soviet Union



Награды: Нет

Торрент-статистика

Создавать темы 02-Окт-2014 10:04

[Цитировать]

--Bernie Marsden - Shine

Страна: UK
Страна производитель диска: EU
Жанр: Rock,Blues Rock,Hard Rock
Год выпуска: 2014
Издатель: (Лейбл) Provogue
Номер по каталогу: PRD 7418 2
Формат: WAVPack (*.wv)
Тип рипа: (Image+.cue)
Битрейт аудио: lossless
Продолжительность: 00:56:58

Trailer
информация об альбоме

треклист

01. Bernie Marsden - Linin' Track (03:24)
02. Bernie Marsden - Wedding Day (03:29)
03. Bernie Marsden - Walk Away (05:31)
04. Bernie Marsden - Kinda Wish She Would (03:53)
05. Bernie Marsden - Ladyfriend (05:17)
06. David Coverdale/Bernie Marsden - Trouble (04:30)
07. Bernie Marsden - Who Do We Think We Are? (05:29)
08. Cherry Lee Mewis/Bernie Marsden - Bad Blood (04:44)
09. Joe Bonamassa/Bernie Marsden - Shine (05:40)
10. Bernie Marsden - Dragonfly (04:25)
11. Bernie Marsden - You Better Run (03:18)
12. Bernie Marsden - Hoxie Rollin' Time (04:08)
13. Bernie Marsden - Nw8 (03:05)

лог создания рипа

Exact Audio Copy V1.0 beta 3 from 29. August 2011
EAC extraction logfile from 24. September 2014, 14:24
Bernie Marsden / Shine [Provogue PRD 7418 2]
Used drive  : Optiarc DVD RW AD-7200S   Adapter: 1  ID: 1
Read mode               : Secure
Utilize accurate stream : Yes
Defeat audio cache      : Yes
Make use of C2 pointers : No
Read offset correction                      : 48
Overread into Lead-In and Lead-Out          : No
Fill up missing offset samples with silence : Yes
Delete leading and trailing silent blocks   : No
Null samples used in CRC calculations       : Yes
Used interface                              : Installed external ASPI interface
Used output format              : User Defined Encoder
Selected bitrate                : 1024 kBit/s
Quality                         : High
Add ID3 tag                     : No
Command line compressor         : D:\Program Files (x86)\Exact Audio Copy\wavpack.exe
Additional command line options : -hlmx2 %source% %dest%
TOC of the extracted CD
     Track |   Start  |  Length  | Start sector | End sector
    ---------------------------------------------------------
        1  |  0:00.00 |  3:24.42 |         0    |    15341
        2  |  3:24.42 |  3:29.60 |     15342    |    31076
        3  |  6:54.27 |  5:31.63 |     31077    |    55964
        4  | 12:26.15 |  3:53.07 |     55965    |    73446
        5  | 16:19.22 |  5:17.64 |     73447    |    97285
        6  | 21:37.11 |  4:30.01 |     97286    |   117536
        7  | 26:07.12 |  5:29.52 |    117537    |   142263
        8  | 31:36.64 |  4:44.11 |    142264    |   163574
        9  | 36:21.00 |  5:40.55 |    163575    |   189129
       10  | 42:01.55 |  4:25.15 |    189130    |   209019
       11  | 46:26.70 |  3:18.50 |    209020    |   223919
       12  | 49:45.45 |  4:08.04 |    223920    |   242523
       13  | 53:53.49 |  3:05.26 |    242524    |   256424
Range status and errors
Selected range
     Filename D:\eac\Bernie Marsden\Bernie Marsden - Shine [Provogue PRD 7418 2].wav
     Peak level 99.3 %
     Extraction speed 3.9 X
     Range quality 100.0 %
     Test CRC F85E5981
     Copy CRC F85E5981
     Copy OK
No errors occurred
AccurateRip summary
Track  1  accurately ripped (confidence 1)  [84995A58]  (AR v2)
Track  2  accurately ripped (confidence 1)  [27EF1B37]  (AR v2)
Track  3  accurately ripped (confidence 1)  [E97BA05F]  (AR v2)
Track  4  accurately ripped (confidence 1)  [504FEB49]  (AR v2)
Track  5  accurately ripped (confidence 1)  [EBF1DDEC]  (AR v2)
Track  6  accurately ripped (confidence 1)  [0D9B5017]  (AR v2)
Track  7  accurately ripped (confidence 1)  [E781C89D]  (AR v2)
Track  8  accurately ripped (confidence 1)  [BA46FAD2]  (AR v2)
Track  9  accurately ripped (confidence 1)  [72EF04B2]  (AR v2)
Track 10  accurately ripped (confidence 1)  [28E549B9]  (AR v2)
Track 11  accurately ripped (confidence 1)  [61633D4B]  (AR v2)
Track 12  accurately ripped (confidence 1)  [C9DD223E]  (AR v2)
Track 13  accurately ripped (confidence 1)  [675B6645]  (AR v2)
All tracks accurately ripped
End of status report
---- CUETools DB Plugin V2.1.3

содержание индексной карты *cue

REM GENRE "Blues Rock"
REM DATE 2014
REM DISCID D80D5B0D
REM COMMENT "ExactAudioCopy v1.0b3"
CATALOG 0819873010685
PERFORMER "Bernie Marsden"
TITLE "Shine [Provogue PRD 7418 2]"
FILE "Bernie Marsden - 2014 - Shine [Provogue PRD 7418 2].wv" WAVE
  TRACK 01 AUDIO
    TITLE "Linin' Track"
    PERFORMER "Bernie Marsden"
    ISRC NLB931400200
    INDEX 01 00:00:00
  TRACK 02 AUDIO
    TITLE "Wedding Day"
    PERFORMER "Bernie Marsden"
    ISRC NLB931400201
    INDEX 00 03:23:47
    INDEX 01 03:24:42
  TRACK 03 AUDIO
    TITLE "Walk Away"
    PERFORMER "Bernie Marsden"
    ISRC NLB931400202
    INDEX 00 06:53:43
    INDEX 01 06:54:27
  TRACK 04 AUDIO
    TITLE "Kinda Wish She Would"
    PERFORMER "Bernie Marsden"
    ISRC NLB931400203
    INDEX 00 12:25:56
    INDEX 01 12:26:15
  TRACK 05 AUDIO
    TITLE "Ladyfriend"
    PERFORMER "Bernie Marsden"
    ISRC NLB931400204
    INDEX 00 16:17:65
    INDEX 01 16:19:22
  TRACK 06 AUDIO
    TITLE "Trouble"
    PERFORMER "David Coverdale/Bernie Marsden"
    ISRC NLB931400205
    INDEX 01 21:37:11
  TRACK 07 AUDIO
    TITLE "Who Do We Think We Are?"
    PERFORMER "Bernie Marsden"
    ISRC NLB931400206
    INDEX 00 26:06:70
    INDEX 01 26:07:12
  TRACK 08 AUDIO
    TITLE "Bad Blood"
    PERFORMER "Cherry Lee Mewis/Bernie Marsden"
    ISRC NLB931400207
    INDEX 00 31:35:21
    INDEX 01 31:36:64
  TRACK 09 AUDIO
    TITLE "Shine"
    PERFORMER "Joe Bonamassa/Bernie Marsden"
    ISRC NLB931400208
    INDEX 00 36:18:61
    INDEX 01 36:21:00
  TRACK 10 AUDIO
    TITLE "Dragonfly"
    PERFORMER "Bernie Marsden"
    ISRC NLB931400209
    INDEX 00 42:00:03
    INDEX 01 42:01:55
  TRACK 11 AUDIO
    TITLE "You Better Run"
    PERFORMER "Bernie Marsden"
    ISRC NLB931400210
    INDEX 00 46:25:66
    INDEX 01 46:26:70
  TRACK 12 AUDIO
    TITLE "Hoxie Rollin' Time"
    PERFORMER "Bernie Marsden"
    ISRC NLB931400211
    INDEX 00 49:44:63
    INDEX 01 49:45:45
  TRACK 13 AUDIO
    TITLE "Nw8"
    PERFORMER "Bernie Marsden"
    ISRC NLB931400212
    INDEX 00 53:50:38
    INDEX 01 53:53:49
[Профиль] [ЛС]
Показать сообщения:    

Текущее время: Сегодня 00:36

Часовой пояс: GMT



Вы не можете начинать темы
Вы не можете отвечать на сообщения
Вы не можете редактировать свои сообщения
Вы не можете удалять свои сообщения
Вы не можете голосовать в опросах
Вы не можете прикреплять файлы к сообщениям
Вы не можете скачивать файлы