Belle Epoque - Hit Collection (2000) [FLAC|Lossless]<Disco>

 
Автор Сообщение

sergej644 ®

Пол:

Стаж: 4 года 11 месяцев

Сообщений: 6038

Откуда: Soviet Union



Награды: Нет

Торрент-статистика

Создавать темы 24-Дек-2014 23:15

[Цитировать]

-Belle Epoque - Hit Collection (2000)- Год: 2000
Жанр: Disco
Лейбл: E.S. Records
Продолжительность: 01:03:57-Кодек: FLAC
Тип рипа: image + .cue
Битрейт: Lossless-Треклист:
01. Bamalama (11:54)
02. Miss Broadway (7:35)
03. Mister-Do-Right (4:08)
04. Me And You (5:37)
05. Drink Me (5:06)
06. Losing You (4:11)
07. Sorry (6:20)
08. Let Men Be (4:47)
09. Disco Sound, Black Is Black, Why Don't You Lay (14:19)-

Отчёт ЕАС&#58;

Exact Audio Copy V1.0 beta 3 from 29. August 2011
EAC extraction logfile from 4. October 2013, 8:16
Belle Epoque / Hit Collection
Used drive  : Optiarc DVD RW AD-5280S   Adapter: 2  ID: 1
Read mode               : Secure
Utilize accurate stream : Yes
Defeat audio cache      : Yes
Make use of C2 pointers : No
Read offset correction                      : 48
Overread into Lead-In and Lead-Out          : No
Fill up missing offset samples with silence : Yes
Delete leading and trailing silent blocks   : No
Null samples used in CRC calculations       : Yes
Used interface                              : Installed external ASPI interface
Used output format : Internal WAV Routines
Sample format      : 44.100 Hz; 16 Bit; Stereo
TOC of the extracted CD
     Track |   Start  |  Length  | Start sector | End sector
    ---------------------------------------------------------
        1  |  0:00.00 | 11:53.73 |         0    |    53547
        2  | 11:53.73 |  7:34.59 |     53548    |    87656
        3  | 19:28.57 |  4:08.01 |     87657    |   106257
        4  | 23:36.58 |  5:37.34 |    106258    |   131566
        5  | 29:14.17 |  5:05.46 |    131567    |   154487
        6  | 34:19.63 |  4:11.07 |    154488    |   173319
        7  | 38:30.70 |  6:19.52 |    173320    |   201796
        8  | 44:50.47 |  4:46.65 |    201797    |   223311
        9  | 49:37.37 | 14:19.37 |    223312    |   287773
Range status and errors
Selected range
     Filename D:\rip-flacmusic.ru\Belle Epoque - Hit Collection.wav
     Peak level 100.0 %
     Extraction speed 2.5 X
     Range quality 100.0 %
     Test CRC FF256AD0
     Copy CRC FF256AD0
     Copy OK
No errors occurred
AccurateRip summary
Track  1  accurately ripped (confidence 1)  [0E0E7A23]  (AR v1)
Track  2  accurately ripped (confidence 1)  [C99C625B]  (AR v1)
Track  3  accurately ripped (confidence 1)  [83ECBC83]  (AR v1)
Track  4  accurately ripped (confidence 1)  [0A8F6DC5]  (AR v1)
Track  5  not present in database
Track  6  accurately ripped (confidence 1)  [18E7745A]  (AR v1)
Track  7  accurately ripped (confidence 1)  [00D73F46]  (AR v1)
Track  8  not present in database
Track  9  accurately ripped (confidence 1)  [489F8E72]  (AR v1)
7 track(s) accurately ripped
2 track(s) not present in the AccurateRip database
Some tracks could not be verified as accurate
End of status report
==== Log checksum 4ECA13AFB80D04C514A5AC7681F19B1DA641658F45574C738273B30C540FB2CC ====

Отчёт auCDtect Task manager&#58;

-----------------------
DON'T MODIFY THIS FILE
-----------------------
PERFORMER: auCDtect Task Manager, ver. 1.6.0 RC1 build 1.6.0.1
Copyright (c) 2008-2010 y-soft. All rights reserved
http://y-soft.org
ANALYZER: auCDtect: CD records authenticity detector, version 0.8.2
Copyright (c) 2004 Oleg Berngardt. All rights reserved.
Copyright (c) 2004 Alexander Djourik. All rights reserved.
FILE: Belle Epoque - Hit Collection.flac
  Size: 410765977 Hash: 0BC9966729624088D80B02DDDB6FCC11 Accuracy: -m0
  Conclusion: CDDA 100%
  Signature: DFEAFFD29346FC4A23CCDBB421A5FE0028227C22

Содержание индексной карты (.CUE&#41;

REM GENRE Disco
REM DATE 2000
REM DISCID 780EFC09
REM COMMENT "ExactAudioCopy v1.0b3"
PERFORMER "Belle Epoque"
TITLE "Hit Collection"
FILE "Belle Epoque - Hit Collection.flac" WAVE
  TRACK 01 AUDIO
    TITLE "Bamalama"
    PERFORMER "Belle Epoque"
    INDEX 01 00:00:00
  TRACK 02 AUDIO
    TITLE "Miss Broadway"
    PERFORMER "Belle Epoque"
    INDEX 01 11:53:73
  TRACK 03 AUDIO
    TITLE "Mister-Do-Right"
    PERFORMER "Belle Epoque"
    INDEX 01 19:28:57
  TRACK 04 AUDIO
    TITLE "Me And You"
    PERFORMER "Belle Epoque"
    INDEX 01 23:36:58
  TRACK 05 AUDIO
    TITLE "Drink Me"
    PERFORMER "Belle Epoque"
    INDEX 01 29:14:17
  TRACK 06 AUDIO
    TITLE "Losing You"
    PERFORMER "Belle Epoque"
    INDEX 01 34:19:63
  TRACK 07 AUDIO
    TITLE "Sorry"
    PERFORMER "Belle Epoque"
    INDEX 01 38:30:70
  TRACK 08 AUDIO
    TITLE "Let Men Be"
    PERFORMER "Belle Epoque"
    INDEX 01 44:50:47
  TRACK 09 AUDIO
    TITLE "Disco Sound, Black Is Black, Why Don't You Lay"
    PERFORMER "Belle Epoque"
    INDEX 01 49:37:37

Сверка с АккуратРип

[CUETools log; Date: 29.01.2014 20:02:09; Version: 2.1.4]
[CTDB TOCID: ja7exqsrPqqptWU51H233RYJQ5o-] disk not present in database.
[AccurateRip ID: 0015a9c9-009a09b3-780efc09] found.
Track   [  CRC   |   V2   ] Status
01     [0e0e7a23|0b584db2] (1+0/1) Accurately ripped
02     [c99c625b|aee66440] (1+0/1) Accurately ripped
03     [83ecbc83|55c22e9c] (1+0/1) Accurately ripped
04     [0a8f6dc5|624c283b] (1+0/1) Accurately ripped
05     [0e5c1e21|8c02eac7] (0+0/0) No match
06     [18e7745a|e9950a5b] (1+0/1) Accurately ripped
07     [00d73f46|87974849] (1+0/1) Accurately ripped
08     [f8b9004b|0bc23c34] (0+0/0) No match
09     [489f8e72|4dd3a698] (1+0/1) Accurately ripped
Track Peak [ CRC32  ] [W/O NULL] [  LOG   ]
--  100,0 [FF256AD0] [6D867197]   CRC32
01   87,6 [3DF10EA2] [0F57B589]
02   99,9 [C60AB863] [0A56D68B]
03   85,3 [A350A191] [0D42C009]
04   86,5 [8BE3A670] [6FB1019D]
05   95,6 [CD3DD403] [8142DE13]
06   83,4 [442857A4] [9C20D847]
07   78,4 [0FBF090A] [81D3FB32]
08   83,6 [1FC5A463] [19E0C602]
09  100,0 [69BD9061] [B4E75604]
[Профиль] [ЛС]

Создавать темы 13-Авг-2015 10:41 (спустя 7 месяцев 19 дней)

Топик был перенесен из форума Зарубежная в форум Technopop, Eurodance, Disco
sergej644
 
Кто просматривает тему:

Показать сообщения:    

Текущее время: Сегодня 08:31

Часовой пояс: GMT



Вы не можете начинать темы
Вы не можете отвечать на сообщения
Вы не можете редактировать свои сообщения
Вы не можете удалять свои сообщения
Вы не можете голосовать в опросах
Вы не можете прикреплять файлы к сообщениям
Вы не можете скачивать файлы