(Pop) Belinda Carlisle - The Very Best Of (2CD) - 2015 [FLAC, image+.cue, lossless]

 
Автор Сообщение

sergej644 ®

Пол:

Стаж: 4 года 11 месяцев

Сообщений: 6035

Откуда: Soviet Union



Награды: Нет

Торрент-статистика

Создавать темы 29-Дек-2015 14:22

[Цитировать]

-Belinda Carlisle / The Very Best Of (2CD)-- Год издания: 2015
Страна: USA
Жанр: Pop
Продолжительность: 02:27:10-Лейбл издания: Music Club Deluxe
Тип альбома: Compilation
Страна-выпуска диска: EU
Номер по каталогу: MCDLX203
Формат: FLAC
Битрейт аудио: lossless
Тип рипа: image+.cue
Наличие сканов в содержимом раздачи: да
-

Трэклист

CD 1 | 01:12:47

01.Heaven Is A Place On Earth (03:55)
02.Circle In The Sand (03:43)
03.(We Want) The Same Thing (03:59)
04.Runaway Horses (04:14)
05.Leave A Light On (04:17)
06.We Can Change (03:49)
07.Valentine (04:31)
08.La Luna (04:14)
09.Shades Of Michaelangelo (05:50)
10.Summer Rain (04:13)
11.Do You Feel Like I Feel? (04:16)
12.You're Nothing Without Me (03:57)
13.Fool For Love (03:58)
14.Vision Of You (04:12)
15.World Without You (04:00)
16.Tell Me (05:36)
17.Love Never Dies (04:11)

CD 2 | 01:14:24

01.Live Your Life Be Free (04:26)
02.I Get Weak (04:18)
03.Big Scary Animal (04:18)
04.I Feel Free (04:27)
05.I Plead Insanity (04:13)
06.Little Black Book (04:15)
07.Lay Down Your Arms (04:12)
08.Half The World (04:24)
09.A Prayer For Everyone (03:53)
10.All God's Children (03:06)
11.World Of Love (04:14)
12.Love Revolution (05:10)
13.Where Love Hides (05:01)
14.Windows Of The World (03:30)
15.One With You (05:15)
16.Emotional Highway (05:22)
17.The Air You Breathe (04:28)
-

Лог создания рипа

CD 1

Exact Audio Copy V1.0 beta 6 from 9. April 2015
EAC extraction logfile from 14. September 2015, 18:19
Belinda Carlisle / The Very Best Of (CD1)
Used drive  : HL-DT-STDVDRAM GH22NS40   Adapter: 1  ID: 0
Read mode               : Secure
Utilize accurate stream : Yes
Defeat audio cache      : Yes
Make use of C2 pointers : No
Read offset correction                      : 667
Overread into Lead-In and Lead-Out          : No
Fill up missing offset samples with silence : Yes
Delete leading and trailing silent blocks   : No
Null samples used in CRC calculations       : Yes
Used interface                              : Native Win32 interface for Win NT & 2000
Used output format              : User Defined Encoder
Selected bitrate                : 1024 kBit/s
Quality                         : High
Add ID3 tag                     : Yes
Command line compressor         : C:\Program Files\Exact Audio Copy\Flac\flac.exe
Additional command line options : -V -8 -T "Date=%year%" -T "Genre=%genre%" %source%
TOC of the extracted CD
     Track |   Start  |  Length  | Start sector | End sector
    ---------------------------------------------------------
        1  |  0:00.00 |  3:54.25 |         0    |    17574
        2  |  3:54.25 |  3:42.03 |     17575    |    34227
        3  |  7:36.28 |  3:58.69 |     34228    |    52146
        4  | 11:35.22 |  4:14.00 |     52147    |    71196
        5  | 15:49.22 |  4:16.56 |     71197    |    90452
        6  | 20:06.03 |  3:48.11 |     90453    |   107563
        7  | 23:54.14 |  4:30.18 |    107564    |   127831
        8  | 28:24.32 |  4:13.24 |    127832    |   146830
        9  | 32:37.56 |  5:49.45 |    146831    |   173050
       10  | 38:27.26 |  4:12.13 |    173051    |   191963
       11  | 42:39.39 |  4:15.27 |    191964    |   211115
       12  | 46:54.66 |  3:56.30 |    211116    |   228845
       13  | 50:51.21 |  3:57.67 |    228846    |   246687
       14  | 54:49.13 |  4:11.37 |    246688    |   265549
       15  | 59:00.50 |  3:59.70 |    265550    |   283544
       16  | 63:00.45 |  5:35.33 |    283545    |   308702
       17  | 68:36.03 |  4:10.33 |    308703    |   327485
Range status and errors
Selected range
     Filename I:\Rips\Belinda Carlisle - The Very Best Of (CD1).wav
     Peak level 99.4 %
     Extraction speed 1.9 X
     Range quality 99.9 %
     Test CRC AC8F4D19
     Copy CRC AC8F4D19
     Copy OK
No errors occurred
AccurateRip summary
Track  1  not present in database
Track  2  not present in database
Track  3  not present in database
Track  4  not present in database
Track  5  not present in database
Track  6  not present in database
Track  7  not present in database
Track  8  not present in database
Track  9  not present in database
Track 10  not present in database
Track 11  not present in database
Track 12  not present in database
Track 13  not present in database
Track 14  not present in database
Track 15  not present in database
Track 16  not present in database
Track 17  not present in database
None of the tracks are present in the AccurateRip database
End of status report
---- CUETools DB Plugin V2.1.6
[CTDB TOCID: YdqO2A3vLW_mlGGLlmb6iakk24Y-] found
Submit result: already submitted
Track | CTDB Status
  1   | (3/3) Accurately ripped
  2   | (3/3) Accurately ripped
  3   | (3/3) Accurately ripped
  4   | (3/3) Accurately ripped
  5   | (3/3) Accurately ripped
  6   | (3/3) Accurately ripped
  7   | (3/3) Accurately ripped
  8   | (3/3) Accurately ripped
  9   | (3/3) Accurately ripped
10   | (3/3) Accurately ripped
11   | (3/3) Accurately ripped
12   | (3/3) Accurately ripped
13   | (3/3) Accurately ripped
14   | (3/3) Accurately ripped
15   | (3/3) Accurately ripped
16   | (3/3) Accurately ripped
17   | (3/3) Accurately ripped

CD 2

Exact Audio Copy V1.0 beta 6 from 9. April 2015
EAC extraction logfile from 14. September 2015, 20:11
Belinda Carlisle / The Very Best Of (CD2)
Used drive  : HL-DT-STDVDRAM GH22NS40   Adapter: 1  ID: 0
Read mode               : Secure
Utilize accurate stream : Yes
Defeat audio cache      : Yes
Make use of C2 pointers : No
Read offset correction                      : 667
Overread into Lead-In and Lead-Out          : No
Fill up missing offset samples with silence : Yes
Delete leading and trailing silent blocks   : No
Null samples used in CRC calculations       : Yes
Used interface                              : Native Win32 interface for Win NT & 2000
Used output format              : User Defined Encoder
Selected bitrate                : 1024 kBit/s
Quality                         : High
Add ID3 tag                     : Yes
Command line compressor         : C:\Program Files\Exact Audio Copy\Flac\flac.exe
Additional command line options : -V -8 -T "Date=%year%" -T "Genre=%genre%" %source%
TOC of the extracted CD
     Track |   Start  |  Length  | Start sector | End sector
    ---------------------------------------------------------
        1  |  0:00.00 |  4:25.35 |         0    |    19909
        2  |  4:25.35 |  4:17.29 |     19910    |    39213
        3  |  8:42.64 |  4:17.13 |     39214    |    58501
        4  | 13:00.02 |  4:26.15 |     58502    |    78466
        5  | 17:26.17 |  4:12.67 |     78467    |    97433
        6  | 21:39.09 |  4:14.39 |     97434    |   116522
        7  | 25:53.48 |  4:11.48 |    116523    |   135395
        8  | 30:05.21 |  4:23.07 |    135396    |   155127
        9  | 34:28.28 |  3:52.45 |    155128    |   172572
       10  | 38:20.73 |  3:05.70 |    172573    |   186517
       11  | 41:26.68 |  4:13.46 |    186518    |   205538
       12  | 45:40.39 |  5:09.72 |    205539    |   228785
       13  | 50:50.36 |  5:00.03 |    228786    |   251288
       14  | 55:50.39 |  3:29.50 |    251289    |   267013
       15  | 59:20.14 |  5:14.10 |    267014    |   290573
       16  | 64:34.24 |  5:21.16 |    290574    |   314664
       17  | 69:55.40 |  4:27.72 |    314665    |   334761
Range status and errors
Selected range
     Filename I:\Rips\Belinda Carlisle - The Very Best Of (CD2).wav
     Peak level 99.4 %
     Extraction speed 1.9 X
     Range quality 99.9 %
     Test CRC 062CAF1F
     Copy CRC 062CAF1F
     Copy OK
No errors occurred
AccurateRip summary
Track  1  not present in database
Track  2  not present in database
Track  3  not present in database
Track  4  not present in database
Track  5  not present in database
Track  6  not present in database
Track  7  not present in database
Track  8  not present in database
Track  9  not present in database
Track 10  not present in database
Track 11  not present in database
Track 12  not present in database
Track 13  not present in database
Track 14  not present in database
Track 15  not present in database
Track 16  not present in database
Track 17  not present in database
None of the tracks are present in the AccurateRip database
End of status report
---- CUETools DB Plugin V2.1.6
[CTDB TOCID: RZ6b1xkyA5haxVmVuvPIzkHx9yw-] found
Submit result: already submitted
Track | CTDB Status
  1   | (3/3) Accurately ripped
  2   | (3/3) Accurately ripped
  3   | (3/3) Accurately ripped
  4   | (3/3) Accurately ripped
  5   | (3/3) Accurately ripped
  6   | (3/3) Accurately ripped
  7   | (3/3) Accurately ripped
  8   | (3/3) Accurately ripped
  9   | (3/3) Accurately ripped
10   | (3/3) Accurately ripped
11   | (3/3) Accurately ripped
12   | (3/3) Accurately ripped
13   | (3/3) Accurately ripped
14   | (3/3) Accurately ripped
15   | (3/3) Accurately ripped
16   | (3/3) Accurately ripped
17   | (3/3) Accurately ripped

Индексная карта (non-compilant .cue)

CD 1

REM GENRE Pop
REM DATE 2015
REM DISCID F9110E11
REM COMMENT "ExactAudioCopy v1.0b6"
PERFORMER "Belinda Carlisle"
TITLE "The Very Best Of (CD1)"
FILE "Belinda Carlisle - The Very Best Of (CD1).flac" WAVE
  TRACK 01 AUDIO
    TITLE "Heaven Is A Place On Earth"
    PERFORMER "Belinda Carlisle"
    FLAGS DCP
    INDEX 01 00:00:00
  TRACK 02 AUDIO
    TITLE "Circle In The Sand"
    PERFORMER "Belinda Carlisle"
    FLAGS DCP
    INDEX 00 03:52:49
    INDEX 01 03:54:25
  TRACK 03 AUDIO
    TITLE "(We Want) The Same Thing"
    PERFORMER "Belinda Carlisle"
    FLAGS DCP
    INDEX 00 07:34:68
    INDEX 01 07:36:28
  TRACK 04 AUDIO
    TITLE "Runaway Horses"
    PERFORMER "Belinda Carlisle"
    FLAGS DCP
    INDEX 00 11:34:07
    INDEX 01 11:35:22
  TRACK 05 AUDIO
    TITLE "Leave A Light On"
    PERFORMER "Belinda Carlisle"
    FLAGS DCP
    INDEX 00 15:47:31
    INDEX 01 15:49:22
  TRACK 06 AUDIO
    TITLE "We Can Change"
    PERFORMER "Belinda Carlisle"
    FLAGS DCP
    INDEX 00 20:03:61
    INDEX 01 20:06:03
  TRACK 07 AUDIO
    TITLE "Valentine"
    PERFORMER "Belinda Carlisle"
    FLAGS DCP
    INDEX 00 23:52:15
    INDEX 01 23:54:14
  TRACK 08 AUDIO
    TITLE "La Luna"
    PERFORMER "Belinda Carlisle"
    FLAGS DCP
    INDEX 00 28:22:33
    INDEX 01 28:24:32
  TRACK 09 AUDIO
    TITLE "Shades Of Michaelangelo"
    PERFORMER "Belinda Carlisle"
    FLAGS DCP
    INDEX 00 32:35:62
    INDEX 01 32:37:56
  TRACK 10 AUDIO
    TITLE "Summer Rain"
    PERFORMER "Belinda Carlisle"
    FLAGS DCP
    INDEX 00 38:26:13
    INDEX 01 38:27:26
  TRACK 11 AUDIO
    TITLE "Do You Feel Like I Feel?"
    PERFORMER "Belinda Carlisle"
    FLAGS DCP
    INDEX 00 42:37:48
    INDEX 01 42:39:39
  TRACK 12 AUDIO
    TITLE "You're Nothing Without Me"
    PERFORMER "Belinda Carlisle"
    FLAGS DCP
    INDEX 00 46:53:14
    INDEX 01 46:54:66
  TRACK 13 AUDIO
    TITLE "Fool For Love"
    PERFORMER "Belinda Carlisle"
    FLAGS DCP
    INDEX 00 50:48:60
    INDEX 01 50:51:21
  TRACK 14 AUDIO
    TITLE "Vision Of You"
    PERFORMER "Belinda Carlisle"
    FLAGS DCP
    INDEX 00 54:47:11
    INDEX 01 54:49:13
  TRACK 15 AUDIO
    TITLE "World Without You"
    PERFORMER "Belinda Carlisle"
    FLAGS DCP
    INDEX 00 58:58:62
    INDEX 01 59:00:50
  TRACK 16 AUDIO
    TITLE "Tell Me"
    PERFORMER "Belinda Carlisle"
    FLAGS DCP
    INDEX 00 62:58:55
    INDEX 01 63:00:45
  TRACK 17 AUDIO
    TITLE "Love Never Dies"
    PERFORMER "Belinda Carlisle"
    FLAGS DCP
    INDEX 00 68:33:74
    INDEX 01 68:36:03

CD 2

REM GENRE Pop
REM DATE 2015
REM DISCID E8116F11
REM COMMENT "ExactAudioCopy v1.0b6"
PERFORMER "Belinda Carlisle"
TITLE "The Very Best Of (CD2)"
FILE "Belinda Carlisle - The Very Best Of (CD2).flac" WAVE
  TRACK 01 AUDIO
    TITLE "Live Your Life Be Free"
    PERFORMER "Belinda Carlisle"
    FLAGS DCP
    INDEX 01 00:00:00
  TRACK 02 AUDIO
    TITLE "I Get Weak"
    PERFORMER "Belinda Carlisle"
    FLAGS DCP
    INDEX 00 04:22:00
    INDEX 01 04:25:35
  TRACK 03 AUDIO
    TITLE "Big Scary Animal"
    PERFORMER "Belinda Carlisle"
    FLAGS DCP
    INDEX 00 08:40:22
    INDEX 01 08:42:64
  TRACK 04 AUDIO
    TITLE "I Feel Free"
    PERFORMER "Belinda Carlisle"
    FLAGS DCP
    INDEX 00 12:57:59
    INDEX 01 13:00:02
  TRACK 05 AUDIO
    TITLE "I Plead Insanity"
    PERFORMER "Belinda Carlisle"
    FLAGS DCP
    INDEX 00 17:24:56
    INDEX 01 17:26:17
  TRACK 06 AUDIO
    TITLE "Little Black Book"
    PERFORMER "Belinda Carlisle"
    FLAGS DCP
    INDEX 00 21:37:41
    INDEX 01 21:39:09
  TRACK 07 AUDIO
    TITLE "Lay Down Your Arms"
    PERFORMER "Belinda Carlisle"
    FLAGS DCP
    INDEX 00 25:51:38
    INDEX 01 25:53:48
  TRACK 08 AUDIO
    TITLE "Half The World"
    PERFORMER "Belinda Carlisle"
    FLAGS DCP
    INDEX 00 30:03:23
    INDEX 01 30:05:21
  TRACK 09 AUDIO
    TITLE "A Prayer For Everyone"
    PERFORMER "Belinda Carlisle"
    FLAGS DCP
    INDEX 00 34:26:29
    INDEX 01 34:28:28
  TRACK 10 AUDIO
    TITLE "All God's Children"
    PERFORMER "Belinda Carlisle"
    FLAGS DCP
    INDEX 00 38:19:06
    INDEX 01 38:20:73
  TRACK 11 AUDIO
    TITLE "World Of Love"
    PERFORMER "Belinda Carlisle"
    FLAGS DCP
    INDEX 00 41:25:01
    INDEX 01 41:26:68
  TRACK 12 AUDIO
    TITLE "Love Revolution"
    PERFORMER "Belinda Carlisle"
    FLAGS DCP
    INDEX 00 45:38:26
    INDEX 01 45:40:39
  TRACK 13 AUDIO
    TITLE "Where Love Hides"
    PERFORMER "Belinda Carlisle"
    FLAGS DCP
    INDEX 00 50:48:27
    INDEX 01 50:50:36
  TRACK 14 AUDIO
    TITLE "Windows Of The World"
    PERFORMER "Belinda Carlisle"
    FLAGS DCP
    INDEX 00 55:48:34
    INDEX 01 55:50:39
  TRACK 15 AUDIO
    TITLE "One With You"
    PERFORMER "Belinda Carlisle"
    FLAGS DCP
    INDEX 00 59:18:58
    INDEX 01 59:20:14
  TRACK 16 AUDIO
    TITLE "Emotional Highway"
    PERFORMER "Belinda Carlisle"
    FLAGS DCP
    INDEX 00 64:32:40
    INDEX 01 64:34:24
  TRACK 17 AUDIO
    TITLE "The Air You Breathe"
    PERFORMER "Belinda Carlisle"
    FLAGS DCP
    INDEX 00 69:53:34
    INDEX 01 69:55:40
--Не забываем говорить
[Профиль] [ЛС]
Кто просматривает тему:

Показать сообщения:    

Текущее время: Сегодня 02:45

Часовой пояс: GMT



Вы не можете начинать темы
Вы не можете отвечать на сообщения
Вы не можете редактировать свои сообщения
Вы не можете удалять свои сообщения
Вы не можете голосовать в опросах
Вы не можете прикреплять файлы к сообщениям
Вы не можете скачивать файлы