(Pop, Pop-Rock, Rock) Bee Gees - The Warner Bros. Years 1987-1991 (5CD Box Set Warner Music) - 2014 [FLAC, image+.cue, lossless]

 
Автор Сообщение

sergej644 ®

Пол:

Стаж: 4 года 11 месяцев

Сообщений: 6046

Откуда: Soviet Union



Награды: Нет

Торрент-статистика

Создавать темы 17-Июн-2015 09:45

[Цитировать]

-Bee Gees / The Warner Bros. Years 1987-1991 (5CD Box Set Warner Music)-- Год издания: 2014
Страна: UK|Australia
Жанр: Pop, Pop-Rock, Rock
Продолжительность: 05:09:06-Лейбл издания: Warner Bros. Records
Страна-выпуска диска: EU
Номер по каталогу: 8122796037
Формат: FLAC
Битрейт аудио: lossless
Тип рипа: image+.cue
Наличие сканов в содержимом раздачи: да
--

1987 - E-S-P | 01:13:10

01.E-S-P (05:35)
02.You Win Again (04:02)
03.Live Or Die (Hold Me Like A Child) (04:43)
04.Giving Up The Ghost (04:26)
05.The Longest Night (05:31)
06.This Is Your Life (04:54)
07.Angela (04:57)
08.Overnight (04:22)
09.Crazy For Your Love (04:44)
10.Backtafunk (04:25)
11.E-S-P (Vocal Reprise) (00:33)
12.E-S-P (Demo Version) / Bonus Track (04:46)
13.Angela (Edit) / Bonus Track (04:23)
14.E-S-P (Edit) / Bonus Track (04:22)
15.You Win Again (Extended Version) / Bonus Track (05:17)
16.E-S-P (Extended Version) / Bonus Track (06:18)

лог создания рипа

Exact Audio Copy V1.0 beta 3 from 29. August 2011
EAC extraction logfile from 24. August 2014, 17:54
Bee Gees / E-S-P
Used drive  : PLEXTOR BD-R  PX-B950SA   Adapter: 6  ID: 0
Read mode               : Secure
Utilize accurate stream : Yes
Defeat audio cache      : Yes
Make use of C2 pointers : No
Read offset correction                      : 6
Overread into Lead-In and Lead-Out          : No
Fill up missing offset samples with silence : Yes
Delete leading and trailing silent blocks   : No
Null samples used in CRC calculations       : Yes
Used interface                              : Native Win32 interface for Win NT & 2000
Used output format : Internal WAV Routines
Sample format      : 44.100 Hz; 16 Bit; Stereo
TOC of the extracted CD
     Track |   Start  |  Length  | Start sector | End sector
    ---------------------------------------------------------
        1  |  0:00.00 |  5:34.64 |         0    |    25113
        2  |  5:34.64 |  4:01.03 |     25114    |    43191
        3  |  9:35.67 |  4:42.28 |     43192    |    64369
        4  | 14:18.20 |  4:25.53 |     64370    |    84297
        5  | 18:43.73 |  5:30.49 |     84298    |   109096
        6  | 24:14.47 |  4:53.23 |    109097    |   131094
        7  | 29:07.70 |  4:56.04 |    131095    |   153298
        8  | 34:03.74 |  4:21.46 |    153299    |   172919
        9  | 38:25.45 |  4:43.20 |    172920    |   194164
       10  | 43:08.65 |  4:24.53 |    194165    |   214017
       11  | 47:33.43 |  0:32.62 |    214018    |   216479
       12  | 48:06.30 |  4:45.35 |    216480    |   237889
       13  | 52:51.65 |  4:22.37 |    237890    |   257576
       14  | 57:14.27 |  4:21.23 |    257577    |   277174
       15  | 61:35.50 |  5:16.40 |    277175    |   300914
       16  | 66:52.15 |  6:17.56 |    300915    |   329245
Range status and errors
Selected range
     Filename C:\Users\Meijin\Desktop\Lossless Galaxy ALLexxess\Bee Gees\2014 Warner Bros. Years 1987-1991 (5CD Box Set Warner Music)\1987 E-S-P\Bee Gees - E-S-P.wav
     Peak level 100.0 %
     Extraction speed 8.7 X
     Range quality 100.0 %
     Test CRC 1B2F9704
     Copy CRC 1B2F9704
     Copy OK
No errors occurred
AccurateRip summary
Track  1  accurately ripped (confidence 6)  [B7FADBC6]  (AR v2)
Track  2  accurately ripped (confidence 6)  [75B78BCE]  (AR v2)
Track  3  accurately ripped (confidence 6)  [D5FF2501]  (AR v2)
Track  4  accurately ripped (confidence 6)  [92FF190B]  (AR v2)
Track  5  accurately ripped (confidence 6)  [70CCD0B3]  (AR v2)
Track  6  accurately ripped (confidence 6)  [0643047D]  (AR v2)
Track  7  accurately ripped (confidence 6)  [B2EBA0C6]  (AR v2)
Track  8  accurately ripped (confidence 6)  [684F1763]  (AR v2)
Track  9  accurately ripped (confidence 6)  [F8D66224]  (AR v2)
Track 10  accurately ripped (confidence 6)  [B385D02D]  (AR v2)
Track 11  accurately ripped (confidence 6)  [8DD23387]  (AR v2)
Track 12  accurately ripped (confidence 6)  [37E2BD9F]  (AR v2)
Track 13  accurately ripped (confidence 6)  [1FC7BD8B]  (AR v2)
Track 14  accurately ripped (confidence 6)  [2A3B6B1C]  (AR v2)
Track 15  accurately ripped (confidence 6)  [45201060]  (AR v2)
Track 16  accurately ripped (confidence 6)  [8A3B406F]  (AR v2)
All tracks accurately ripped
End of status report

содержание индексной карты *cue

REM GENRE "Pop / Rock / Pop Rock"
REM DATE 1987
REM DISCID F2112510
REM COMMENT "ExactAudioCopy v1.0b3"
PERFORMER "Bee Gees"
TITLE "E-S-P"
FILE "Bee Gees - E-S-P.flac" WAVE
  TRACK 01 AUDIO
    TITLE "E-S-P"
    PERFORMER "Bee Gees"
    INDEX 01 00:00:00
  TRACK 02 AUDIO
    TITLE "You Win Again"
    PERFORMER "Bee Gees"
    INDEX 01 05:34:64
  TRACK 03 AUDIO
    TITLE "Live Or Die (Hold Me Like A Child)"
    PERFORMER "Bee Gees"
    INDEX 01 09:35:67
  TRACK 04 AUDIO
    TITLE "Giving Up The Ghost"
    PERFORMER "Bee Gees"
    INDEX 00 14:18:02
    INDEX 01 14:18:20
  TRACK 05 AUDIO
    TITLE "The Longest Night"
    PERFORMER "Bee Gees"
    INDEX 01 18:43:73
  TRACK 06 AUDIO
    TITLE "This Is Your Life"
    PERFORMER "Bee Gees"
    INDEX 01 24:14:47
  TRACK 07 AUDIO
    TITLE "Angela"
    PERFORMER "Bee Gees"
    INDEX 01 29:07:70
  TRACK 08 AUDIO
    TITLE "Overnight"
    PERFORMER "Bee Gees"
    INDEX 01 34:03:74
  TRACK 09 AUDIO
    TITLE "Crazy For Your Love"
    PERFORMER "Bee Gees"
    INDEX 00 38:24:08
    INDEX 01 38:25:45
  TRACK 10 AUDIO
    TITLE "Backtafunk"
    PERFORMER "Bee Gees"
    INDEX 00 43:07:04
    INDEX 01 43:08:65
  TRACK 11 AUDIO
    TITLE "E-S-P (Vocal Reprise)"
    PERFORMER "Bee Gees"
    INDEX 01 47:33:43
  TRACK 12 AUDIO
    TITLE "E-S-P (Demo Version) / Bonus Track"
    PERFORMER "Bee Gees"
    INDEX 00 48:04:24
    INDEX 01 48:06:30
  TRACK 13 AUDIO
    TITLE "Angela (Edit) / Bonus Track"
    PERFORMER "Bee Gees"
    INDEX 00 52:50:24
    INDEX 01 52:51:65
  TRACK 14 AUDIO
    TITLE "E-S-P (Edit) / Bonus Track"
    PERFORMER "Bee Gees"
    INDEX 00 57:12:66
    INDEX 01 57:14:27
  TRACK 15 AUDIO
    TITLE "You Win Again (Extended Version) / Bonus Track"
    PERFORMER "Bee Gees"
    INDEX 00 61:34:20
    INDEX 01 61:35:50
  TRACK 16 AUDIO
    TITLE "E-S-P (Extended Version) / Bonus Track"
    PERFORMER "Bee Gees"
    INDEX 00 66:50:38
    INDEX 01 66:52:15

auCDtect Task Manager Лог

-----------------------
DON'T MODIFY THIS FILE
-----------------------
PERFORMER: auCDtect Task Manager, ver. 1.6.0 RC1 build 1.6.0.1
Copyright (c) 2008-2010 y-soft. All rights reserved
http://y-soft.org
ANALYZER: auCDtect: CD records authenticity detector, version 0.8.2
Copyright (c) 2004 Oleg Berngardt. All rights reserved.
Copyright (c) 2004 Alexander Djourik. All rights reserved.
FILE: Bee Gees - E-S-P.wav
  Size: 774386636 Hash: 74DA9231BB199208DB5930BC018DFF6E Accuracy: -m8
  Conclusion: CDDA 100%
  Signature: 74D2F3B1AB5D188F0B43D6D000651FCDC24574A4
FILE: Bee Gees - E-S-P.flac
  Size: 527077128 Hash: 74DA9231BB199208DB5930BC018DFF6E Accuracy: -m8
  Conclusion: CDDA 100%
  Signature: 63322C42C4EE1710CDDCFE265CD6078B728C8716

1989 - One | 01:18:08

01.Ordinary Lives (04:05)
02.One (04:52)
03.Bodyguard (05:22)
04.It's My Neighborhood (04:18)
05.Tears (05:17)
06.Tokyo Nights (03:57)
07.Flesh And Blood (04:43)
08.Wish You Were Here (04:45)
09.House Of Shame (04:50)
10.Will You Ever Let Me (05:54)
11.Wing And A Prayer (03:58)
12.Shape Of Things To Come / Bonus Track (04:28)
13.One (Remix / Edit) / Bonus Track (03:53)
14.One (12'' Dance Version) / Bonus Track (08:46)
15.One (12'' Club Mix) / Bonus Track (09:07)

лог создания рипа

Exact Audio Copy V1.0 beta 3 from 29. August 2011
EAC extraction logfile from 24. August 2014, 17:15
Bee Gees / One
Used drive  : PLEXTOR BD-R  PX-B950SA   Adapter: 6  ID: 0
Read mode               : Secure
Utilize accurate stream : Yes
Defeat audio cache      : Yes
Make use of C2 pointers : No
Read offset correction                      : 6
Overread into Lead-In and Lead-Out          : No
Fill up missing offset samples with silence : Yes
Delete leading and trailing silent blocks   : No
Null samples used in CRC calculations       : Yes
Used interface                              : Native Win32 interface for Win NT & 2000
Used output format : Internal WAV Routines
Sample format      : 44.100 Hz; 16 Bit; Stereo
TOC of the extracted CD
     Track |   Start  |  Length  | Start sector | End sector
    ---------------------------------------------------------
        1  |  0:00.00 |  4:04.45 |         0    |    18344
        2  |  4:04.45 |  4:51.56 |     18345    |    40225
        3  |  8:56.26 |  5:21.50 |     40226    |    64350
        4  | 14:18.01 |  4:17.07 |     64351    |    83632
        5  | 18:35.08 |  5:16.65 |     83633    |   107397
        6  | 23:51.73 |  3:56.29 |    107398    |   125126
        7  | 27:48.27 |  4:42.11 |    125127    |   146287
        8  | 32:30.38 |  4:44.47 |    146288    |   167634
        9  | 37:15.10 |  4:49.20 |    167635    |   189329
       10  | 42:04.30 |  5:53.63 |    189330    |   215867
       11  | 47:58.18 |  3:57.14 |    215868    |   233656
       12  | 51:55.32 |  4:27.74 |    233657    |   253755
       13  | 56:23.31 |  3:52.37 |    253756    |   271192
       14  | 60:15.68 |  8:45.15 |    271193    |   310582
       15  | 69:01.08 |  9:06.25 |    310583    |   351557
Range status and errors
Selected range
     Filename C:\Users\Meijin\Desktop\Lossless Galaxy ALLexxess\Bee Gees\2014 Warner Bros. Years 1987-1991 (5CD Box Set Warner Music)\1989 One\Bee Gees - One.wav
     Peak level 99.0 %
     Extraction speed 8.8 X
     Range quality 100.0 %
     Test CRC E3B1EE23
     Copy CRC E3B1EE23
     Copy OK
No errors occurred
AccurateRip summary
Track  1  accurately ripped (confidence 7)  [B54F53C7]  (AR v2)
Track  2  accurately ripped (confidence 7)  [4C6EFCC9]  (AR v2)
Track  3  accurately ripped (confidence 7)  [4B2741CA]  (AR v2)
Track  4  accurately ripped (confidence 7)  [F4515705]  (AR v2)
Track  5  accurately ripped (confidence 7)  [42CF4DBC]  (AR v2)
Track  6  accurately ripped (confidence 7)  [76B2CB97]  (AR v2)
Track  7  accurately ripped (confidence 7)  [91CB30E1]  (AR v2)
Track  8  accurately ripped (confidence 7)  [7EE53740]  (AR v2)
Track  9  accurately ripped (confidence 7)  [74293808]  (AR v2)
Track 10  accurately ripped (confidence 7)  [6AE5E59B]  (AR v2)
Track 11  accurately ripped (confidence 7)  [A667E32B]  (AR v2)
Track 12  accurately ripped (confidence 7)  [AB8210FD]  (AR v2)
Track 13  accurately ripped (confidence 7)  [2AB6D250]  (AR v2)
Track 14  accurately ripped (confidence 7)  [E028F690]  (AR v2)
Track 15  accurately ripped (confidence 7)  [8C911EA9]  (AR v2)
All tracks accurately ripped
End of status report

содержание индексной карты *cue

REM GENRE "Pop / Rock / Pop Rock"
REM DATE 1989
REM DISCID CB124F0F
REM COMMENT "ExactAudioCopy v1.0b3"
PERFORMER "Bee Gees"
TITLE "One"
FILE "Bee Gees - One.flac" WAVE
  TRACK 01 AUDIO
    TITLE "Ordinary Lives"
    PERFORMER "Bee Gees"
    INDEX 01 00:00:00
  TRACK 02 AUDIO
    TITLE "One"
    PERFORMER "Bee Gees"
    INDEX 01 04:04:45
  TRACK 03 AUDIO
    TITLE "Bodyguard"
    PERFORMER "Bee Gees"
    INDEX 01 08:56:26
  TRACK 04 AUDIO
    TITLE "It's My Neighborhood"
    PERFORMER "Bee Gees"
    INDEX 01 14:18:01
  TRACK 05 AUDIO
    TITLE "Tears"
    PERFORMER "Bee Gees"
    INDEX 01 18:35:08
  TRACK 06 AUDIO
    TITLE "Tokyo Nights"
    PERFORMER "Bee Gees"
    INDEX 01 23:51:73
  TRACK 07 AUDIO
    TITLE "Flesh And Blood"
    PERFORMER "Bee Gees"
    INDEX 01 27:48:27
  TRACK 08 AUDIO
    TITLE "Wish You Were Here"
    PERFORMER "Bee Gees"
    INDEX 01 32:30:38
  TRACK 09 AUDIO
    TITLE "House Of Shame"
    PERFORMER "Bee Gees"
    INDEX 01 37:15:10
  TRACK 10 AUDIO
    TITLE "Will You Ever Let Me"
    PERFORMER "Bee Gees"
    INDEX 01 42:04:30
  TRACK 11 AUDIO
    TITLE "Wing And A Prayer"
    PERFORMER "Bee Gees"
    INDEX 01 47:58:18
  TRACK 12 AUDIO
    TITLE "Shape Of Things To Come / Bonus Track"
    PERFORMER "Bee Gees"
    INDEX 00 51:52:39
    INDEX 01 51:55:32
  TRACK 13 AUDIO
    TITLE "One (Remix / Edit) / Bonus Track"
    PERFORMER "Bee Gees"
    INDEX 00 56:22:05
    INDEX 01 56:23:31
  TRACK 14 AUDIO
    TITLE "One (12'' Dance Version) / Bonus Track"
    PERFORMER "Bee Gees"
    INDEX 00 60:14:25
    INDEX 01 60:15:68
  TRACK 15 AUDIO
    TITLE "One (12'' Club Mix) / Bonus Track"
    PERFORMER "Bee Gees"
    INDEX 00 69:00:00
    INDEX 01 69:01:08

auCDtect Task Manager Лог

-----------------------
DON'T MODIFY THIS FILE
-----------------------
PERFORMER: auCDtect Task Manager, ver. 1.6.0 RC1 build 1.6.0.1
Copyright (c) 2008-2010 y-soft. All rights reserved
http://y-soft.org
ANALYZER: auCDtect: CD records authenticity detector, version 0.8.2
Copyright (c) 2004 Oleg Berngardt. All rights reserved.
Copyright (c) 2004 Alexander Djourik. All rights reserved.
FILE: Bee Gees - One.wav
  Size: 826864460 Hash: F601BC10D1A4EBBB25EE98FAAC5BAD44 Accuracy: -m8
  Conclusion: CDDA 99%
  Signature: 21E4C722459E236D68A51983283E6C1990CE3922
FILE: Bee Gees - One.flac
  Size: 549755832 Hash: F601BC10D1A4EBBB25EE98FAAC5BAD44 Accuracy: -m8
  Conclusion: CDDA 99%
  Signature: 18DC05CFAA9589E2DBFBC8486AEAE64705D19C7B

1991 - High Civilization | 01:00:15

01.High Civilization (05:32)
02.Secret Love (03:43)
03.When He's Gone (06:00)
04.Happy Ever After (06:18)
05.Party With No Name (04:57)
06.Ghost Train (06:05)
07.Dimensions (05:29)
08.The Only Love (05:37)
09.Human Sacrifice (05:43)
10.True Confessions (05:17)
11.Evolution (05:40)

лог создания рипа

Exact Audio Copy V1.0 beta 3 from 29. August 2011
EAC extraction logfile from 24. August 2014, 16:39
Bee Gees / High Civilization
Used drive  : PLEXTOR BD-R  PX-B950SA   Adapter: 6  ID: 0
Read mode               : Secure
Utilize accurate stream : Yes
Defeat audio cache      : Yes
Make use of C2 pointers : No
Read offset correction                      : 6
Overread into Lead-In and Lead-Out          : No
Fill up missing offset samples with silence : Yes
Delete leading and trailing silent blocks   : No
Null samples used in CRC calculations       : Yes
Used interface                              : Native Win32 interface for Win NT & 2000
Used output format : Internal WAV Routines
Sample format      : 44.100 Hz; 16 Bit; Stereo
TOC of the extracted CD
     Track |   Start  |  Length  | Start sector | End sector
    ---------------------------------------------------------
        1  |  0:00.00 |  5:31.40 |         0    |    24864
        2  |  5:31.40 |  3:42.61 |     24865    |    41575
        3  |  9:14.26 |  5:59.02 |     41576    |    68502
        4  | 15:13.28 |  6:17.11 |     68503    |    96788
        5  | 21:30.39 |  4:56.03 |     96789    |   118991
        6  | 26:26.42 |  6:04.53 |    118992    |   146344
        7  | 32:31.20 |  5:28.51 |    146345    |   170995
        8  | 37:59.71 |  5:36.11 |    170996    |   196206
        9  | 43:36.07 |  5:42.69 |    196207    |   221925
       10  | 49:19.01 |  5:16.19 |    221926    |   245644
       11  | 54:35.20 |  5:39.18 |    245645    |   271087
Range status and errors
Selected range
     Filename C:\Users\Meijin\Desktop\Lossless Galaxy ALLexxess\Bee Gees\2014 Warner Bros. Years 1987-1991 (5CD Box Set Warner Music)\1991 High Civilization\Bee Gees - High Civilization.wav
     Peak level 99.0 %
     Extraction speed 7.9 X
     Range quality 99.9 %
     Test CRC C14AA3D1
     Copy CRC C14AA3D1
     Copy OK
No errors occurred
AccurateRip summary
Track  1  accurately ripped (confidence 7)  [ACB9082E]  (AR v2)
Track  2  accurately ripped (confidence 7)  [195F6184]  (AR v2)
Track  3  accurately ripped (confidence 7)  [EA0CD4AB]  (AR v2)
Track  4  accurately ripped (confidence 7)  [2426E2FC]  (AR v2)
Track  5  accurately ripped (confidence 7)  [09FF1B87]  (AR v2)
Track  6  accurately ripped (confidence 7)  [C820CE81]  (AR v2)
Track  7  accurately ripped (confidence 7)  [18428CD1]  (AR v2)
Track  8  accurately ripped (confidence 7)  [EF7967A0]  (AR v2)
Track  9  accurately ripped (confidence 7)  [A05275CE]  (AR v2)
Track 10  accurately ripped (confidence 7)  [45C0E7AD]  (AR v2)
Track 11  accurately ripped (confidence 7)  [6033A866]  (AR v2)
All tracks accurately ripped
End of status report

содержание индексной карты *cue

REM GENRE "Pop / Rock / Pop Rock"
REM DATE 1991
REM DISCID A30E1E0B
REM COMMENT "ExactAudioCopy v1.0b3"
PERFORMER "Bee Gees"
TITLE "High Civilization"
FILE "Bee Gees - High Civilization.flac" WAVE
  TRACK 01 AUDIO
    TITLE "High Civilization"
    PERFORMER "Bee Gees"
    INDEX 01 00:00:00
  TRACK 02 AUDIO
    TITLE "Secret Love"
    PERFORMER "Bee Gees"
    INDEX 00 05:28:66
    INDEX 01 05:31:40
  TRACK 03 AUDIO
    TITLE "When He's Gone"
    PERFORMER "Bee Gees"
    INDEX 00 09:11:25
    INDEX 01 09:14:26
  TRACK 04 AUDIO
    TITLE "Happy Ever After"
    PERFORMER "Bee Gees"
    INDEX 00 15:07:54
    INDEX 01 15:13:28
  TRACK 05 AUDIO
    TITLE "Party With No Name"
    PERFORMER "Bee Gees"
    INDEX 00 21:27:67
    INDEX 01 21:30:39
  TRACK 06 AUDIO
    TITLE "Ghost Train"
    PERFORMER "Bee Gees"
    INDEX 00 26:20:65
    INDEX 01 26:26:42
  TRACK 07 AUDIO
    TITLE "Dimensions"
    PERFORMER "Bee Gees"
    INDEX 00 32:29:32
    INDEX 01 32:31:20
  TRACK 08 AUDIO
    TITLE "The Only Love"
    PERFORMER "Bee Gees"
    INDEX 00 37:56:29
    INDEX 01 37:59:71
  TRACK 09 AUDIO
    TITLE "Human Sacrifice"
    PERFORMER "Bee Gees"
    INDEX 00 43:32:20
    INDEX 01 43:36:07
  TRACK 10 AUDIO
    TITLE "True Confessions"
    PERFORMER "Bee Gees"
    INDEX 00 49:13:48
    INDEX 01 49:19:01
  TRACK 11 AUDIO
    TITLE "Evolution"
    PERFORMER "Bee Gees"
    INDEX 00 54:32:65
    INDEX 01 54:35:20

auCDtect Task Manager Лог

-----------------------
DON'T MODIFY THIS FILE
-----------------------
PERFORMER: auCDtect Task Manager, ver. 1.6.0 RC1 build 1.6.0.1
Copyright (c) 2008-2010 y-soft. All rights reserved
http://y-soft.org
ANALYZER: auCDtect: CD records authenticity detector, version 0.8.2
Copyright (c) 2004 Oleg Berngardt. All rights reserved.
Copyright (c) 2004 Alexander Djourik. All rights reserved.
FILE: Bee Gees - High Civilization.wav
  Size: 637599020 Hash: A59F121339BDF0F2C54E3E4A35236493 Accuracy: -m8
  Conclusion: CDDA 100%
  Signature: A19EDE3253C2F376DE68A7EC6C99B47F2F5EF490
FILE: Bee Gees - High Civilization.flac
  Size: 424283333 Hash: A59F121339BDF0F2C54E3E4A35236493 Accuracy: -m8
  Conclusion: CDDA 100%
  Signature: 1C1F9939457375C94F62F049B3C9519A4FC2277C

2014 - One For All Concert 1989 (2CD)

CD 1 | 00:53:32

01.Intro (01:13)
02.Ordinary Lives (04:44)
03.Giving Up The Ghost (03:52)
04.To Love Somebody (03:41)
05.I've Gotta Get A Message To You (03:57)
06.One (05:08)
07.Tokyo Nights (03:49)
08.Words (05:37)
09.Juliet (03:33)
10.Lonely Days (03:36)
11.New York Mining Disaster 1941 / Medley (02:16)
12.Holiday / Medley (01:44)
13.Too Much Heaven / Medley (02:12)
14.Heartbreaker / Medley (01:02)
15.Islands In The Stream / Medley (01:36)
16.Run To Me / Medley (01:15)
17.World / Medley (01:35)
18.Spicks And Specks / Medley (02:53)

лог создания рипа

Exact Audio Copy V1.0 beta 3 from 29. August 2011
EAC extraction logfile from 24. August 2014, 12:43
Bee Gees / 'One For All' Concert 1989 CD1
Used drive  : PLEXTOR BD-R  PX-B950SA   Adapter: 6  ID: 0
Read mode               : Secure
Utilize accurate stream : Yes
Defeat audio cache      : Yes
Make use of C2 pointers : No
Read offset correction                      : 6
Overread into Lead-In and Lead-Out          : No
Fill up missing offset samples with silence : Yes
Delete leading and trailing silent blocks   : No
Null samples used in CRC calculations       : Yes
Used interface                              : Native Win32 interface for Win NT & 2000
Used output format : Internal WAV Routines
Sample format      : 44.100 Hz; 16 Bit; Stereo
TOC of the extracted CD
     Track |   Start  |  Length  | Start sector | End sector
    ---------------------------------------------------------
        1  |  0:00.00 |  1:12.39 |         0    |     5438
        2  |  1:12.39 |  4:43.65 |      5439    |    26728
        3  |  5:56.29 |  3:51.27 |     26729    |    44080
        4  |  9:47.56 |  3:40.06 |     44081    |    60586
        5  | 13:27.62 |  3:56.49 |     60587    |    78335
        6  | 17:24.36 |  5:07.68 |     78336    |   101428
        7  | 22:32.29 |  3:48.04 |    101429    |   118532
        8  | 26:20.33 |  5:36.03 |    118533    |   143735
        9  | 31:56.36 |  3:32.16 |    143736    |   159651
       10  | 35:28.52 |  3:35.30 |    159652    |   175806
       11  | 39:04.07 |  2:15.28 |    175807    |   185959
       12  | 41:19.35 |  1:43.13 |    185960    |   193697
       13  | 43:02.48 |  2:11.08 |    193698    |   203530
       14  | 45:13.56 |  1:01.39 |    203531    |   208144
       15  | 46:15.20 |  1:35.13 |    208145    |   215282
       16  | 47:50.33 |  1:14.04 |    215283    |   220836
       17  | 49:04.37 |  1:34.05 |    220837    |   227891
       18  | 50:38.42 |  2:52.36 |    227892    |   240827
Range status and errors
Selected range
     Filename C:\Users\Meijin\Desktop\Lossless Galaxy ALLexxess\Bee Gees\2014 Warner Bros. Years 1987-1991 (5CD Box Set Warner Music)\2014 'One For All' Concert 1989\CD1\Bee Gees - 'One For All' Concert 1989 CD1.wav
     Peak level 100.0 %
     Extraction speed 6.7 X
     Range quality 99.9 %
     Test CRC BD7D6BBE
     Copy CRC BD7D6BBE
     Copy OK
No errors occurred
AccurateRip summary
Track  1  accurately ripped (confidence 6)  [D28DE6EE]  (AR v2)
Track  2  accurately ripped (confidence 6)  [3A0DC381]  (AR v2)
Track  3  accurately ripped (confidence 6)  [457F8B93]  (AR v2)
Track  4  accurately ripped (confidence 6)  [A21517DA]  (AR v2)
Track  5  accurately ripped (confidence 6)  [C80A86AE]  (AR v2)
Track  6  accurately ripped (confidence 6)  [F8409659]  (AR v2)
Track  7  accurately ripped (confidence 6)  [DA6C1519]  (AR v2)
Track  8  accurately ripped (confidence 6)  [C461EEC0]  (AR v2)
Track  9  accurately ripped (confidence 6)  [17790D36]  (AR v2)
Track 10  accurately ripped (confidence 6)  [6D33F564]  (AR v2)
Track 11  accurately ripped (confidence 6)  [0083FEEC]  (AR v2)
Track 12  accurately ripped (confidence 6)  [3DC9A0E7]  (AR v2)
Track 13  accurately ripped (confidence 6)  [85977A64]  (AR v2)
Track 14  accurately ripped (confidence 6)  [E8A6500E]  (AR v2)
Track 15  accurately ripped (confidence 6)  [166BA002]  (AR v2)
Track 16  accurately ripped (confidence 6)  [4AF3D58B]  (AR v2)
Track 17  accurately ripped (confidence 6)  [5A10B0BD]  (AR v2)
Track 18  accurately ripped (confidence 6)  [F953949D]  (AR v2)
All tracks accurately ripped
End of status report

содержание индексной карты *cue

REM GENRE "Pop / Rock / Pop Rock"
REM DATE 2014
REM DISCID 0C0C8B12
REM COMMENT "ExactAudioCopy v1.0b3"
PERFORMER "Bee Gees"
TITLE "'One For All' Concert 1989 CD1"
FILE "Bee Gees - 'One For All' Concert 1989 CD1.flac" WAVE
  TRACK 01 AUDIO
    TITLE "Intro"
    PERFORMER "Bee Gees"
    INDEX 01 00:00:00
  TRACK 02 AUDIO
    TITLE "Ordinary Lives"
    PERFORMER "Bee Gees"
    INDEX 01 01:12:39
  TRACK 03 AUDIO
    TITLE "Giving Up The Ghost"
    PERFORMER "Bee Gees"
    INDEX 01 05:56:29
  TRACK 04 AUDIO
    TITLE "To Love Somebody"
    PERFORMER "Bee Gees"
    INDEX 01 09:47:56
  TRACK 05 AUDIO
    TITLE "I've Gotta Get A Message To You"
    PERFORMER "Bee Gees"
    INDEX 01 13:27:62
  TRACK 06 AUDIO
    TITLE "One"
    PERFORMER "Bee Gees"
    INDEX 01 17:24:36
  TRACK 07 AUDIO
    TITLE "Tokyo Nights"
    PERFORMER "Bee Gees"
    INDEX 01 22:32:29
  TRACK 08 AUDIO
    TITLE "Words"
    PERFORMER "Bee Gees"
    INDEX 01 26:20:33
  TRACK 09 AUDIO
    TITLE "Juliet"
    PERFORMER "Bee Gees"
    INDEX 01 31:56:36
  TRACK 10 AUDIO
    TITLE "Lonely Days"
    PERFORMER "Bee Gees"
    INDEX 01 35:28:52
  TRACK 11 AUDIO
    TITLE "New York Mining Disaster 1941 / Medley"
    PERFORMER "Bee Gees"
    INDEX 01 39:04:07
  TRACK 12 AUDIO
    TITLE "Holiday / Medley"
    PERFORMER "Bee Gees"
    INDEX 01 41:19:35
  TRACK 13 AUDIO
    TITLE "Too Much Heaven / Medley"
    PERFORMER "Bee Gees"
    INDEX 01 43:02:48
  TRACK 14 AUDIO
    TITLE "Heartbreaker / Medley"
    PERFORMER "Bee Gees"
    INDEX 01 45:13:56
  TRACK 15 AUDIO
    TITLE "Islands In The Stream / Medley"
    PERFORMER "Bee Gees"
    INDEX 01 46:15:20
  TRACK 16 AUDIO
    TITLE "Run To Me / Medley"
    PERFORMER "Bee Gees"
    INDEX 01 47:50:33
  TRACK 17 AUDIO
    TITLE "World / Medley"
    PERFORMER "Bee Gees"
    INDEX 01 49:04:37
  TRACK 18 AUDIO
    TITLE "Spicks And Specks / Medley"
    PERFORMER "Bee Gees"
    INDEX 01 50:38:42

auCDtect Task Manager Лог

-----------------------
DON'T MODIFY THIS FILE
-----------------------
PERFORMER: auCDtect Task Manager, ver. 1.6.0 RC1 build 1.6.0.1
Copyright (c) 2008-2010 y-soft. All rights reserved
http://y-soft.org
ANALYZER: auCDtect: CD records authenticity detector, version 0.8.2
Copyright (c) 2004 Oleg Berngardt. All rights reserved.
Copyright (c) 2004 Alexander Djourik. All rights reserved.
FILE: Bee Gees - 'One For All' Concert 1989 CD1.wav
  Size: 566427500 Hash: DACEAC020BC4F759C39ACCB9AA90B55B Accuracy: -m8
  Conclusion: CDDA 100%
  Signature: F1143E0B601A18171E8A7E1E127E097DA1B52122
FILE: Bee Gees - 'One For All' Concert 1989 CD1.flac
  Size: 368964803 Hash: DACEAC020BC4F759C39ACCB9AA90B55B Accuracy: -m8
  Conclusion: CDDA 100%
  Signature: 1C3E16A5D0FD087039CE88C7BD4097A8402072DC

CD 2 |00:44:04

01.How Deep Is Your Love (04:29)
02.It's My Neighborhood (03:52)
03.How Can You Mend A Broken Heart (03:29)
04.House Of Shame (04:44)
05.I Started A Joke (02:57)
06.Massachusetts (02:54)
07.Stayin' Alive (04:04)
08.Nights On Broadway (04:19)
09.Jive Talkin' (04:15)
10.You Win Again (03:33)
11.You Should Be Dancing (05:33)

лог создания рипа

Exact Audio Copy V1.0 beta 3 from 29. August 2011
EAC extraction logfile from 24. August 2014, 12:17
Bee Gees / 'One For All' Concert 1989 CD2
Used drive  : PLEXTOR BD-R  PX-B950SA   Adapter: 6  ID: 0
Read mode               : Secure
Utilize accurate stream : Yes
Defeat audio cache      : Yes
Make use of C2 pointers : No
Read offset correction                      : 6
Overread into Lead-In and Lead-Out          : No
Fill up missing offset samples with silence : Yes
Delete leading and trailing silent blocks   : No
Null samples used in CRC calculations       : Yes
Used interface                              : Native Win32 interface for Win NT & 2000
Used output format : Internal WAV Routines
Sample format      : 44.100 Hz; 16 Bit; Stereo
TOC of the extracted CD
     Track |   Start  |  Length  | Start sector | End sector
    ---------------------------------------------------------
        1  |  0:00.00 |  4:28.30 |         0    |    20129
        2  |  4:28.30 |  3:51.14 |     20130    |    37468
        3  |  8:19.44 |  3:28.28 |     37469    |    53096
        4  | 11:47.72 |  4:43.10 |     53097    |    74331
        5  | 16:31.07 |  2:56.59 |     74332    |    87590
        6  | 19:27.66 |  2:53.49 |     87591    |   100614
        7  | 22:21.40 |  4:03.42 |    100615    |   118881
        8  | 26:25.07 |  4:18.16 |    118882    |   138247
        9  | 30:43.23 |  4:14.25 |    138248    |   157322
       10  | 34:57.48 |  3:32.52 |    157323    |   173274
       11  | 38:30.25 |  5:32.51 |    173275    |   198225
Range status and errors
Selected range
     Filename C:\Users\Meijin\Desktop\Lossless Galaxy ALLexxess\Bee Gees\2014 Warner Bros. Years 1987-1991 (5CD Box Set Warner Music)\2014 'One For All' Concert 1989\CD2\Bee Gees - 'One For All' Concert 1989 CD2.wav
     Peak level 100.0 %
     Extraction speed 6.9 X
     Range quality 100.0 %
     Test CRC DB6DC99F
     Copy CRC DB6DC99F
     Copy OK
No errors occurred
AccurateRip summary
Track  1  accurately ripped (confidence 6)  [9D1C232C]  (AR v2)
Track  2  accurately ripped (confidence 6)  [5970402A]  (AR v2)
Track  3  accurately ripped (confidence 6)  [93485677]  (AR v2)
Track  4  accurately ripped (confidence 6)  [146FFB62]  (AR v2)
Track  5  accurately ripped (confidence 6)  [9321B909]  (AR v2)
Track  6  accurately ripped (confidence 6)  [ECE751C3]  (AR v2)
Track  7  accurately ripped (confidence 6)  [062D95E7]  (AR v2)
Track  8  accurately ripped (confidence 6)  [6AF00A35]  (AR v2)
Track  9  accurately ripped (confidence 6)  [036A18E2]  (AR v2)
Track 10  accurately ripped (confidence 6)  [FF0BEDF2]  (AR v2)
Track 11  accurately ripped (confidence 6)  [5913AEEE]  (AR v2)
All tracks accurately ripped
End of status report

содержание индексной карты *cue

REM GENRE "Pop / Rock / Pop Rock"
REM DATE 2014
REM DISCID 950A530B
REM COMMENT "ExactAudioCopy v1.0b3"
PERFORMER "Bee Gees"
TITLE "'One For All' Concert 1989 CD2"
FILE "Bee Gees - 'One For All' Concert 1989 CD2.flac" WAVE
  TRACK 01 AUDIO
    TITLE "How Deep Is Your Love"
    PERFORMER "Bee Gees"
    INDEX 01 00:00:00
  TRACK 02 AUDIO
    TITLE "It's My Neighborhood"
    PERFORMER "Bee Gees"
    INDEX 01 04:28:30
  TRACK 03 AUDIO
    TITLE "How Can You Mend A Broken Heart"
    PERFORMER "Bee Gees"
    INDEX 01 08:19:44
  TRACK 04 AUDIO
    TITLE "House Of Shame"
    PERFORMER "Bee Gees"
    INDEX 01 11:47:72
  TRACK 05 AUDIO
    TITLE "I Started A Joke"
    PERFORMER "Bee Gees"
    INDEX 01 16:31:07
  TRACK 06 AUDIO
    TITLE "Massachusetts"
    PERFORMER "Bee Gees"
    INDEX 01 19:27:66
  TRACK 07 AUDIO
    TITLE "Stayin' Alive"
    PERFORMER "Bee Gees"
    INDEX 01 22:21:40
  TRACK 08 AUDIO
    TITLE "Nights On Broadway"
    PERFORMER "Bee Gees"
    INDEX 01 26:25:07
  TRACK 09 AUDIO
    TITLE "Jive Talkin'"
    PERFORMER "Bee Gees"
    INDEX 01 30:43:23
  TRACK 10 AUDIO
    TITLE "You Win Again"
    PERFORMER "Bee Gees"
    INDEX 01 34:57:48
  TRACK 11 AUDIO
    TITLE "You Should Be Dancing"
    PERFORMER "Bee Gees"
    INDEX 01 38:30:25

auCDtect Task Manager Лог

-----------------------
DON'T MODIFY THIS FILE
-----------------------
PERFORMER: auCDtect Task Manager, ver. 1.6.0 RC1 build 1.6.0.1
Copyright (c) 2008-2010 y-soft. All rights reserved
http://y-soft.org
ANALYZER: auCDtect: CD records authenticity detector, version 0.8.2
Copyright (c) 2004 Oleg Berngardt. All rights reserved.
Copyright (c) 2004 Alexander Djourik. All rights reserved.
FILE: Bee Gees - 'One For All' Concert 1989 CD2.wav
  Size: 466227596 Hash: A500AD2DFEA9FC5A78CD393390F5A994 Accuracy: -m8
  Conclusion: CDDA 100%
  Signature: 3328A9D7A713AD66C20CC8A0AE7671A0BA261AA8
FILE: Bee Gees - 'One For All' Concert 1989 CD2.flac
  Size: 324172945 Hash: A500AD2DFEA9FC5A78CD393390F5A994 Accuracy: -m8
  Conclusion: CDDA 100%
  Signature: 2ACC4315B3DA8A1B3E13A7B0F50C80A3F4950C68
--

Об исполнителе (группе)

Bee Gees - британская музыкальная группа. Состояла из трёх братьев: лидера-вокалиста Барри Гибба, второго лидера-вокалиста Робина Гибба и клавишника-гитариста Мориса Гибба. Мировые продажи пластинок группы превышают сто миллионов копий, что делает их одним из самых успешных коллективов в истории музыкальной индустрии.
Барри Гибб родился 1 сентября 1946 в Манчестере (Англия). Робин и Морис — близнецы, родились 22 декабря 1949 года с разницей в 35 минут. В 1958 году семья Гиббов переехала из Манчестера в Австралию. В 1960 году они выступали в нескольких телевизионных шоу, а также на курортах Австралии, несмотря на то, что были несовершеннолетними. Австралийская звезда Кол Джой был вдохновлен песнями Барри и помог братьям получить контракт на запись с музыкальным лейблом в 1963 году. Название группы было изменено на "Bee Gees". Трио выпускало по два-три сингла в год. В то же время Барри успевал писать песни для других австралийских исполнителей. В 1966 Гиббы вернулись в Англию, где начали успешную карьеру в рок-музыке (хиты Words и др.). Однако к началу 1970-х гг. пластинки Bee Gees перестали пользоваться успехом.
Вторая фаза Bee Gees началась, когда музыканты неожиданно для всех обратились к музыке диско. В 1977 году был выпущен саундтрек к фильму «Лихорадка субботнего вечера», самой известной композицией которого стала заглавная песня «Stayin' Alive». Благодаря её невероятной популярности, Bee Gees немедленно взлетели на первые строчки хит-парадов, по сути став живым олицетворением эпохи диско и одним из главных поставщиков хитов для дискотек второй половины 1970-х гг. (хит «Tragedy» и др.)
В 1979 году группа получила звезду на аллее славы в Голливуде за достижения и вклад в области музыки.
В 1980-х годах участники группы в основном занимались сольными проектами. Особенно на этом поприще повезло Робину (хиты Juliet, Boys Do Fall In Love и др.) В 1987 году группа выпустила альбом E.S.P., который стал достаточно успешным. Сингл You Win Again с этого альбома возглавил чарты Великобритании и Европы. Bee Gees вернули себе внимание критики и любителей музыки в конце 1990-х гг., выпустив несколько традиционных рок-альбомов (последний — в 2001). В 2003 году группа прекратила существование в связи со смертью Мориса Гибба.
По прошествии шести лет, в конце 2009 года, Барри и Робин объявили о возрождении Bee Gees. Однако группа так и не осуществила каких-либо новых студийных записей. Со смертью Робина Гибба в 2012 году надежда на возрождение Bee Gees окончательно угасла.
--Не забываем говорить
[Профиль] [ЛС]

Создавать темы 13-Авг-2015 10:42 (спустя 1 месяц 26 дней)

Топик был перенесен из форума Зарубежная в форум World Pop
sergej644
 
Кто просматривает тему:

Форум Тема Автор Размер
Pop (Pop, Pop-Dance) [CD] ДискоМафия - Хочется ! - 2007, APE (image+.cue), lossless sergej644 519 MB
Показать сообщения:    

Текущее время: Сегодня 13:50

Часовой пояс: GMT



Вы не можете начинать темы
Вы не можете отвечать на сообщения
Вы не можете редактировать свои сообщения
Вы не можете удалять свои сообщения
Вы не можете голосовать в опросах
Вы не можете прикреплять файлы к сообщениям
Вы не можете скачивать файлы