Beck - Live at Saturday Night Live (01.03.2014) [2014, Alternative Rock, HDTV 1080i]

 
Автор Сообщение

reversefile ®

Пол:

Стаж: 4 года 5 месяцев

Сообщений: 842

Откуда: ReverseFile.org



Награды: Нет

Торрент-статистика

Создавать темы 11-Авг-2014 19:06

[Цитировать]

Beck - Live at Saturday Night Live-
Жанр: Alternative Rock
Продолжительность: 00:04:20+00:04:01
Год выпуска: 2014
Описание: Выступление Beck на Saturday Night Live телеканала NBC 1 марта 2014 г.
1. Blue Moon
2. Wave-Качество: HDTV 1080i
Контейнер: TS
Видео кодек: MPEG2
Аудио кодек: AC3
Видео: 1920x1080 (16:9), 14.1 Mbps, 29.970 fps
Аудио: AC3, 384 Kbps, 48.0 KHz, 6 ch

Отчёт MediaInfo / BDInfo

General
ID                                       : 1 (0x1)
Complete name                            : D:\Beck.SNL.S39E14\Beck.Blue Moon.SNL.01.03.14.HDTV.1080i.DD5.1.MPEG2.ts
Format                                   : MPEG-TS
File size                                : 475 MiB
Duration                                 : 4mn 20s
Overall bit rate mode                    : Variable
Overall bit rate                         : 15.3 Mbps
Maximum Overall bit rate                 : 35.5 Mbps
Law rating                               : TV-14 (DL)
Video
ID                                       : 4113 (0x1011)
Menu ID                                  : 1 (0x1)
Format                                   : MPEG Video
Format version                           : Version 2
Format profile                           : Main@High
Format settings, BVOP                    : Yes
Format settings, Matrix                  : Custom
Format settings, GOP                     : Variable
Codec ID                                 : 2
Duration                                 : 4mn 20s
Bit rate mode                            : Variable
Bit rate                                 : 14.1 Mbps
Maximum bit rate                         : 24.0 Mbps
Width                                    : 1 920 pixels
Height                                   : 1 080 pixels
Display aspect ratio                     : 16:9
Active Format Description                : Letterbox 16:9 image
Frame rate                               : 29.970 fps
Color space                              : YUV
Chroma subsampling                       : 4:2:0
Bit depth                                : 8 bits
Scan type                                : Interlaced
Scan order                               : Top Field First
Compression mode                         : Lossy
Bits/(Pixel*Frame)                       : 0.227
Time code of first frame                 : 00:00:00;00
Time code source                         : Group of pictures header
Stream size                              : 439 MiB (93%)
Audio
ID                                       : 4352 (0x1100)
Menu ID                                  : 1 (0x1)
Format                                   : AC-3
Format/Info                              : Audio Coding 3
Mode extension                           : CM (complete main)
Format settings, Endianness              : Big
Codec ID                                 : 129
Duration                                 : 4mn 20s
Bit rate mode                            : Constant
Bit rate                                 : 384 Kbps
Channel(s)                               : 6 channels
Channel positions                        : Front: L C R, Side: L R, LFE
Sampling rate                            : 48.0 KHz
Bit depth                                : 16 bits
Compression mode                         : Lossy
Stream size                              : 11.9 MiB (3%)
Text #1
ID                                       : 4113 (0x1011)-CC1
Menu ID                                  : 1 (0x1)
Format                                   : EIA-608
Muxing mode                              : A/53 / DTVCC Transport
Muxing mode, more info                   : Muxed in Video #1
Duration                                 : 4mn 20s
Bit rate mode                            : Constant
Stream size                              : 0.00 Byte (0%)
Text #2
ID                                       : 4113 (0x1011)-1
Menu ID                                  : 1 (0x1)
Format                                   : EIA-708
Muxing mode                              : A/53 / DTVCC Transport
Muxing mode, more info                   : Muxed in Video #1
Duration                                 : 4mn 20s
Bit rate mode                            : Constant
Stream size                              : 0.00 Byte (0%)
Text #3
ID                                       : 4113 (0x1011)-3
Menu ID                                  : 1 (0x1)
Format                                   : EIA-708
Muxing mode                              : A/53 / DTVCC Transport
Muxing mode, more info                   : Muxed in Video #1
Duration                                 : 4mn 20s
Bit rate mode                            : Constant
Stream size                              : 0.00 Byte (0%)
General
ID                                       : 1 (0x1)
Complete name                            : D:\Beck.SNL.S39E14\Beck.Wave.SNL.01.03.14.HDTV.1080i.DD5.1.MPEG2.ts
Format                                   : MPEG-TS
File size                                : 432 MiB
Duration                                 : 4mn 1s
Overall bit rate mode                    : Variable
Overall bit rate                         : 15.0 Mbps
Maximum Overall bit rate                 : 35.5 Mbps
Law rating                               : TV-14 (DL)
Video
ID                                       : 4113 (0x1011)
Menu ID                                  : 1 (0x1)
Format                                   : MPEG Video
Format version                           : Version 2
Format profile                           : Main@High
Format settings, BVOP                    : Yes
Format settings, Matrix                  : Custom
Format settings, GOP                     : Variable
Codec ID                                 : 2
Duration                                 : 4mn 1s
Bit rate mode                            : Variable
Bit rate                                 : 13.9 Mbps
Maximum bit rate                         : 24.0 Mbps
Width                                    : 1 920 pixels
Height                                   : 1 080 pixels
Display aspect ratio                     : 16:9
Active Format Description                : Full frame 16:9 image
Frame rate                               : 29.970 fps
Color space                              : YUV
Chroma subsampling                       : 4:2:0
Bit depth                                : 8 bits
Scan type                                : Interlaced
Scan order                               : Top Field First
Compression mode                         : Lossy
Bits/(Pixel*Frame)                       : 0.223
Time code of first frame                 : 00:00:00;00
Time code source                         : Group of pictures header
Stream size                              : 400 MiB (92%)
Audio
ID                                       : 4352 (0x1100)
Menu ID                                  : 1 (0x1)
Format                                   : AC-3
Format/Info                              : Audio Coding 3
Mode extension                           : CM (complete main)
Format settings, Endianness              : Big
Codec ID                                 : 129
Duration                                 : 4mn 1s
Bit rate mode                            : Constant
Bit rate                                 : 384 Kbps
Channel(s)                               : 6 channels
Channel positions                        : Front: L C R, Side: L R, LFE
Sampling rate                            : 48.0 KHz
Bit depth                                : 16 bits
Compression mode                         : Lossy
Stream size                              : 11.1 MiB (3%)
Text #1
ID                                       : 4113 (0x1011)-CC1
Menu ID                                  : 1 (0x1)
Format                                   : EIA-608
Muxing mode                              : A/53 / DTVCC Transport
Muxing mode, more info                   : Muxed in Video #1
Duration                                 : 4mn 1s
Bit rate mode                            : Constant
Stream size                              : 0.00 Byte (0%)
Text #2
ID                                       : 4113 (0x1011)-1
Menu ID                                  : 1 (0x1)
Format                                   : EIA-708
Muxing mode                              : A/53 / DTVCC Transport
Muxing mode, more info                   : Muxed in Video #1
Duration                                 : 4mn 1s
Bit rate mode                            : Constant
Stream size                              : 0.00 Byte (0%)
Text #3
ID                                       : 4113 (0x1011)-3
Menu ID                                  : 1 (0x1)
Format                                   : EIA-708
Muxing mode                              : A/53 / DTVCC Transport
Muxing mode, more info                   : Muxed in Video #1
Duration                                 : 4mn 1s
Bit rate mode                            : Constant
Stream size                              : 0.00 Byte (0%)

Скриншоты

-
[Профиль] [ЛС]
Кто просматривает тему:

Показать сообщения:    

Текущее время: Сегодня 18:59

Часовой пояс: GMT



Вы не можете начинать темы
Вы не можете отвечать на сообщения
Вы не можете редактировать свои сообщения
Вы не можете удалять свои сообщения
Вы не можете голосовать в опросах
Вы не можете прикреплять файлы к сообщениям
Вы не можете скачивать файлы