(Melodic Heavy, Power Metal) Beast in Black - From Hell with Love (Japanese Edition) - 2019 [FLAC, image +.cue, lossless]

 
Автор Сообщение

sergej644 ®

Пол:

Стаж: 7 лет 2 месяца

Сообщений: 7274

Откуда: Klaipeda



Награды: 9 (Подробнее)

Mega Seeder 2 (Количество: 1) Top Seeder 5 (Количество: 1) Mega Seeder 1 (Количество: 1)
Торрент-статистика

Создавать темы 26-Фев-2019 19:47

[Цитировать]

-Beast in Black - From Hell with Love (Japanese Edition)--
Год издания: 2019
Страна: Finland
Жанр: Melodic Heavy, Power Metal
Продолжительность: 00:51:29-Лейбл издания: Ward Records; Chaos Reigns
Страна-выпуска диска: Japan
Номер по каталогу: GQCS-90684-Формат: FLAC
Битрейт аудио: Lossless
Тип рипа: image +.cue
Наличие сканов в содержимом раздачи: да
-

Трэклист


01. Cry Out For A Hero (3:29)
02. From Hell With Love (3:57)
03. Sweet True Lies (3:28)
04. Repentless (4:04)
05. Die By The Blade (3:16)
06. Oceandeep (5:47)
07. Unlimited Sin (3:36)
08. True Believer (3:30)
09. This Is War (3:41)
10. Heart Of Steel (4:23)
11. No Surrender (4:17)
12. Killed By Death (Bonus Track) (3:54)
13. No Easy Way Out (Bonus Track) (4:06)
-

Лог создания рипа

Exact Audio Copy V1.3 from 2. September 2016
EAC extraction logfile from 25. February 2019, 16:50
Beast In Black / From Hell With Love (Japan)
Used drive  : ATAPI   iHAS124   F   Adapter: 2  ID: 0
Read mode               : Secure
Utilize accurate stream : Yes
Defeat audio cache      : Yes
Make use of C2 pointers : No
Read offset correction                      : 6
Overread into Lead-In and Lead-Out          : No
Fill up missing offset samples with silence : Yes
Delete leading and trailing silent blocks   : No
Null samples used in CRC calculations       : Yes
Used interface                              : Installed external ASPI interface
Used output format              : User Defined Encoder
Selected bitrate                : 1024 kBit/s
Quality                         : High
Add ID3 tag                     : No
Command line compressor         : C:\Program Files\FLAC\flac.exe
Additional command line options : -V -8 -T "Date=%year%" -T "Genre=%genre%" -T"COMMENT=Ripped by  Ilijan" -8 -V %source%
TOC of the extracted CD
     Track |   Start  |  Length  | Start sector | End sector
    ---------------------------------------------------------
        1  |  0:00.00 |  3:29.25 |         0    |    15699
        2  |  3:29.25 |  3:57.22 |     15700    |    33496
        3  |  7:26.47 |  3:28.13 |     33497    |    49109
        4  | 10:54.60 |  4:04.17 |     49110    |    67426
        5  | 14:59.02 |  3:16.25 |     67427    |    82151
        6  | 18:15.27 |  5:47.14 |     82152    |   108190
        7  | 24:02.41 |  3:35.68 |    108191    |   124383
        8  | 27:38.34 |  3:29.53 |    124384    |   140111
        9  | 31:08.12 |  3:40.43 |    140112    |   156654
       10  | 34:48.55 |  4:23.14 |    156655    |   176393
       11  | 39:11.69 |  4:16.46 |    176394    |   195639
       12  | 43:28.40 |  3:54.00 |    195640    |   213189
       13  | 47:22.40 |  4:06.21 |    213190    |   231660
Range status and errors
Selected range
     Filename D:\Vknish\Beast In Black - From Hell With Love (Japan).wav
     Peak level 96.8 %
     Extraction speed 8.2 X
     Range quality 100.0 %
     Test CRC B5B4528E
     Copy CRC B5B4528E
     Copy OK
No errors occurred
AccurateRip summary
Track  1  cannot be verified as accurate (confidence 4)  [13F05379], AccurateRip returned [1E608F66]  (AR v2)
Track  2  cannot be verified as accurate (confidence 4)  [A9887AEA], AccurateRip returned [EA2FF994]  (AR v2)
Track  3  cannot be verified as accurate (confidence 4)  [081A379B], AccurateRip returned [80A250F2]  (AR v2)
Track  4  cannot be verified as accurate (confidence 4)  [C7BBD02F], AccurateRip returned [2C1BA16E]  (AR v2)
Track  5  cannot be verified as accurate (confidence 4)  [FBD23C02], AccurateRip returned [D7674850]  (AR v2)
Track  6  cannot be verified as accurate (confidence 4)  [EF641703], AccurateRip returned [DBD5D063]  (AR v2)
Track  7  cannot be verified as accurate (confidence 4)  [6EF255E2], AccurateRip returned [0791AE5E]  (AR v2)
Track  8  cannot be verified as accurate (confidence 4)  [89F2D358], AccurateRip returned [A8152BA0]  (AR v2)
Track  9  cannot be verified as accurate (confidence 4)  [5F1D1975], AccurateRip returned [C4FDA33E]  (AR v2)
Track 10  cannot be verified as accurate (confidence 4)  [3F9891F1], AccurateRip returned [3A87A2A0]  (AR v2)
Track 11  cannot be verified as accurate (confidence 4)  [555E354F], AccurateRip returned [D5B39E3F]  (AR v2)
Track 12  cannot be verified as accurate (confidence 4)  [513D8DB7], AccurateRip returned [D9A9E655]  (AR v2)
Track 13  cannot be verified as accurate (confidence 4)  [444528A0], AccurateRip returned [1ED49BBE]  (AR v2)
No tracks could be verified as accurate
You may have a different pressing from the one(s) in the database
End of status report

Индексная карта (non-compilant .cue)

REM GENRE "Heavy/Power Metal"
REM DATE 2019
REM DISCID 9F0C100D
REM COMMENT "ExactAudioCopy v1.3"
PERFORMER "Beast In Black"
TITLE "From Hell With Love (Japan)"
FILE "Beast In Black - From Hell With Love (Japan).flac" WAVE
  TRACK 01 AUDIO
    TITLE "Cry Out For A Hero"
    PERFORMER "Beast In Black"
    INDEX 01 00:00:00
  TRACK 02 AUDIO
    TITLE "From Hell With Love"
    PERFORMER "Beast In Black"
    INDEX 00 03:27:44
    INDEX 01 03:29:25
  TRACK 03 AUDIO
    TITLE "Sweet True Lies"
    PERFORMER "Beast In Black"
    INDEX 00 07:24:66
    INDEX 01 07:26:47
  TRACK 04 AUDIO
    TITLE "Repentless"
    PERFORMER "Beast In Black"
    INDEX 00 10:53:04
    INDEX 01 10:54:60
  TRACK 05 AUDIO
    TITLE "Die By The Blade"
    PERFORMER "Beast In Black"
    INDEX 00 14:57:21
    INDEX 01 14:59:02
  TRACK 06 AUDIO
    TITLE "Oceandeep"
    PERFORMER "Beast In Black"
    INDEX 00 18:13:46
    INDEX 01 18:15:27
  TRACK 07 AUDIO
    TITLE "Unlimited Sin"
    PERFORMER "Beast In Black"
    INDEX 00 24:00:60
    INDEX 01 24:02:41
  TRACK 08 AUDIO
    TITLE "True Believer"
    PERFORMER "Beast In Black"
    INDEX 00 27:36:53
    INDEX 01 27:38:34
  TRACK 09 AUDIO
    TITLE "This Is War"
    PERFORMER "Beast In Black"
    INDEX 00 31:06:31
    INDEX 01 31:08:12
  TRACK 10 AUDIO
    TITLE "Heart Of Steel"
    PERFORMER "Beast In Black"
    INDEX 00 34:46:74
    INDEX 01 34:48:55
  TRACK 11 AUDIO
    TITLE "No Surrender"
    PERFORMER "Beast In Black"
    INDEX 00 39:10:13
    INDEX 01 39:11:69
  TRACK 12 AUDIO
    TITLE "Killed By Death (Bonus Track)"
    PERFORMER "Beast In Black"
    INDEX 00 43:26:59
    INDEX 01 43:28:40
  TRACK 13 AUDIO
    TITLE "No Easy Way Out (Bonus Track)"
    PERFORMER "Beast In Black"
    INDEX 00 47:20:72
    INDEX 01 47:22:40
-

для ознакомления:

http://www.youtube.com/watch?v=4waVZXKE0GU
--
[Профиль] [ЛС]
Показать сообщения:    

Текущее время: Сегодня 05:45

Часовой пояс: GMT



Вы не можете начинать темы
Вы не можете отвечать на сообщения
Вы не можете редактировать свои сообщения
Вы не можете удалять свои сообщения
Вы не можете голосовать в опросах
Вы не можете прикреплять файлы к сообщениям
Вы не можете скачивать файлы