(Blues, Jazz, Soul) B.B.King - Ladies & Gentlemen...Mr. B.B.King (10CD Box) - 2012 [FLAC, image+.cue, lossless]

 
Автор Сообщение

sergej644 ®

Пол:

Стаж: 4 года 11 месяцев

Сообщений: 6043

Откуда: Soviet Union



Награды: Нет

Торрент-статистика

Создавать темы 21-Май-2015 17:06

[Цитировать]

-B.B.King / Ladies & Gentlemen...Mr. B.B.King (10CD Box)-- Год издания: 2012
Страна: USA
Жанр: Blues, Jazz, Soul
Продолжительность: 12:48:22-Лейбл издания: Universal Music B.V./Amazon.com Exclusive
Страна-выпуска диска: EU
Номер по каталогу: 0600753384992
Формат: FLAC
Битрейт аудио: lossless
Тип рипа: image+.cue
Наличие сканов в содержимом раздачи: да
---

Трэклист

CD 01 - Three O'Clock Blues 1949-1956 | 01:16:07

01.Miss Martha King (02:44)
02.When Your Baby Packs Up And Goes (02:30)
03.Got The Blues (02:47)
04.Take A Swing With Me (02:34)
05.B.B. Boogie (03:13)
06.Don't You Want A Man Like Me (02:22)
07.Fine Looking Woman (02:24)
08.She's Dynamite (02:31)
09.Three O'Clock Blues (03:03)
10.That Ain't The Way To Do It (02:19)
11.You Know I Love You (03:06)
12.Woke Up This Morning (02:58)
13.Please Love Me (02:53)
14.Blind Love (03:06)
15.The Woman I Love (02:41)
16.Whole Lotta' Love (03:10)
17.Everyday I Have The Blues (02:50)
18.Love You Baby (a/k/a Take A Swing With Me) (02:40)
19.When My Heart Beats Like A Hammer (02:56)
20.You Upset Me Baby (03:04)
21.Sneakin' Around (03:03)
22.Shut Your Mouth (02:42)
23.Boogie Rock (03:06)
24.Ten Long Years (02:49)
25.Crying Won't Help You (03:01)
26.Bad Luck (02:55)
27.Troubles, Troubles, Troubles (02:55)

лог создания рипа

Exact Audio Copy V1.0 beta 3 from 29. August 2011
EAC extraction logfile from 22. November 2012, 20:53
B.B. King / Ladies & Gentlemen...Mr. B.B. King CD01: Three O'Clock Blues (1949-1956)
Used drive  : PLEXTOR BD-R  PX-B950SA   Adapter: 6  ID: 0
Read mode               : Secure
Utilize accurate stream : Yes
Defeat audio cache      : Yes
Make use of C2 pointers : No
Read offset correction                      : 6
Overread into Lead-In and Lead-Out          : No
Fill up missing offset samples with silence : Yes
Delete leading and trailing silent blocks   : No
Null samples used in CRC calculations       : Yes
Used interface                              : Native Win32 interface for Win NT & 2000
Used output format : Internal WAV Routines
Sample format      : 44.100 Hz; 16 Bit; Stereo
TOC of the extracted CD
     Track |   Start  |  Length  | Start sector | End sector
    ---------------------------------------------------------
        1  |  0:00.00 |  2:43.14 |         0    |    12238
        2  |  2:43.14 |  2:29.28 |     12239    |    23441
        3  |  5:12.42 |  2:46.42 |     23442    |    35933
        4  |  7:59.09 |  2:33.10 |     35934    |    47418
        5  | 10:32.19 |  3:12.17 |     47419    |    61835
        6  | 13:44.36 |  2:21.29 |     61836    |    72439
        7  | 16:05.65 |  2:23.06 |     72440    |    83170
        8  | 18:28.71 |  2:30.58 |     83171    |    94478
        9  | 20:59.54 |  3:02.15 |     94479    |   108143
       10  | 24:01.69 |  2:18.19 |    108144    |   118512
       11  | 26:20.13 |  3:05.36 |    118513    |   132423
       12  | 29:25.49 |  2:57.28 |    132424    |   145726
       13  | 32:23.02 |  2:52.03 |    145727    |   158629
       14  | 35:15.05 |  3:05.59 |    158630    |   172563
       15  | 38:20.64 |  2:40.74 |    172564    |   184637
       16  | 41:01.63 |  3:09.24 |    184638    |   198836
       17  | 44:11.12 |  2:49.56 |    198837    |   211567
       18  | 47:00.68 |  2:39.71 |    211568    |   223563
       19  | 49:40.64 |  2:55.11 |    223564    |   236699
       20  | 52:36.00 |  3:03.11 |    236700    |   250435
       21  | 55:39.11 |  3:02.50 |    250436    |   264135
       22  | 58:41.61 |  2:41.23 |    264136    |   276233
       23  | 61:23.09 |  3:05.45 |    276234    |   290153
       24  | 64:28.54 |  2:48.14 |    290154    |   302767
       25  | 67:16.68 |  3:00.18 |    302768    |   316285
       26  | 70:17.11 |  2:54.46 |    316286    |   329381
       27  | 73:11.57 |  2:54.55 |    329382    |   342486
Range status and errors
Selected range
     Filename C:\Users\Meijin\Desktop\Lossless Galaxy Rip by ALLexxess\BB King\2012 Ladies & Gentlemen...Mr. B.B. King (10CD Box Set Universal Music)\CD01 Three O’Clock Blues 1949-1956\Ladies & Gentlemen...Mr. B.B. King CD01.wav
     Peak level 89.1 %
     Extraction speed 8.7 X
     Range quality 100.0 %
     Test CRC 3FA32568
     Copy CRC 3FA32568
     Copy OK
No errors occurred
AccurateRip summary
Track  1  not present in database
Track  2  not present in database
Track  3  not present in database
Track  4  not present in database
Track  5  not present in database
Track  6  not present in database
Track  7  not present in database
Track  8  not present in database
Track  9  not present in database
Track 10  not present in database
Track 11  not present in database
Track 12  not present in database
Track 13  not present in database
Track 14  not present in database
Track 15  not present in database
Track 16  not present in database
Track 17  not present in database
Track 18  not present in database
Track 19  not present in database
Track 20  not present in database
Track 21  not present in database
Track 22  not present in database
Track 23  not present in database
Track 24  not present in database
Track 25  not present in database
Track 26  not present in database
Track 27  not present in database
None of the tracks are present in the AccurateRip database
End of status report

содержание индексной карты *cue

REM GENRE "Blues / Jazz / Soul"
REM DATE 2012
REM DISCID 7F11D61B
REM COMMENT "ExactAudioCopy v1.0b3"
CATALOG 0600753385012
PERFORMER "B.B. King"
TITLE "Ladies & Gentlemen...Mr. B.B. King CD01: Three O'Clock Blues (1949-1956)"
FILE "Range.wav" WAVE
  TRACK 01 AUDIO
    TITLE "Miss Martha King"
    PERFORMER "B.B. King"
    ISRC GB2DY1200038
    FLAGS DCP
    INDEX 01 00:00:00
  TRACK 02 AUDIO
    TITLE "When Your Baby Packs Up And Goes"
    PERFORMER "B.B. King"
    ISRC GB2DY1200039
    FLAGS DCP
    INDEX 01 02:43:14
  TRACK 03 AUDIO
    TITLE "Got The Blues"
    PERFORMER "B.B. King"
    ISRC GB2DY1200040
    FLAGS DCP
    INDEX 01 05:12:42
  TRACK 04 AUDIO
    TITLE "Take A Swing With Me"
    PERFORMER "B.B. King"
    ISRC GB2DY1200041
    FLAGS DCP
    INDEX 01 07:59:09
  TRACK 05 AUDIO
    TITLE "B.B. Boogie"
    PERFORMER "B.B. King"
    ISRC USVI21200658
    FLAGS DCP
    INDEX 01 10:32:19
  TRACK 06 AUDIO
    TITLE "Don't You Want A Man Like Me"
    PERFORMER "B.B. King"
    ISRC USVI21200659
    FLAGS DCP
    INDEX 01 13:44:36
  TRACK 07 AUDIO
    TITLE "Fine Looking Woman"
    PERFORMER "B.B. King"
    ISRC USVI21200660
    FLAGS DCP
    INDEX 01 16:05:65
  TRACK 08 AUDIO
    TITLE "She's Dynamite"
    PERFORMER "B.B. King"
    ISRC USVI21200661
    FLAGS DCP
    INDEX 01 18:28:71
  TRACK 09 AUDIO
    TITLE "Three O'Clock Blues"
    PERFORMER "B.B. King"
    ISRC USVI21200662
    FLAGS DCP
    INDEX 01 20:59:54
  TRACK 10 AUDIO
    TITLE "That Ain't The Way To Do It"
    PERFORMER "B.B. King"
    ISRC USVI20600924
    FLAGS DCP
    INDEX 01 24:01:69
  TRACK 11 AUDIO
    TITLE "You Know I Love You"
    PERFORMER "B.B. King"
    ISRC USVI20201055
    FLAGS DCP
    INDEX 01 26:20:13
  TRACK 12 AUDIO
    TITLE "Woke Up This Morning"
    PERFORMER "B.B. King"
    ISRC USVI20100743
    FLAGS DCP
    INDEX 01 29:25:49
  TRACK 13 AUDIO
    TITLE "Please Love Me"
    PERFORMER "B.B. King"
    ISRC USVI20600923
    FLAGS DCP
    INDEX 01 32:23:02
  TRACK 14 AUDIO
    TITLE "Blind Love"
    PERFORMER "B.B. King"
    ISRC USVI21200663
    FLAGS DCP
    INDEX 01 35:15:05
  TRACK 15 AUDIO
    TITLE "The Woman I Love"
    PERFORMER "B.B. King"
    ISRC USVI20601001
    FLAGS DCP
    INDEX 01 38:20:64
  TRACK 16 AUDIO
    TITLE "Whole Lotta' Love"
    PERFORMER "B.B. King"
    ISRC USVI21200665
    FLAGS DCP
    INDEX 01 41:01:63
  TRACK 17 AUDIO
    TITLE "Everyday I Have The Blues"
    PERFORMER "B.B. King"
    ISRC USVI28700009
    FLAGS DCP
    INDEX 01 44:11:12
  TRACK 18 AUDIO
    TITLE "Love You Baby (a/k/a Take A Swing With Me)"
    PERFORMER "B.B. King"
    ISRC USVI21200664
    FLAGS DCP
    INDEX 01 47:00:68
  TRACK 19 AUDIO
    TITLE "When My Heart Beats Like A Hammer"
    PERFORMER "B.B. King"
    ISRC USVI29401006
    FLAGS DCP
    INDEX 01 49:40:64
  TRACK 20 AUDIO
    TITLE "You Upset Me Baby"
    PERFORMER "B.B. King"
    ISRC USVI25400001
    FLAGS DCP
    INDEX 01 52:36:00
  TRACK 21 AUDIO
    TITLE "Sneakin' Around"
    PERFORMER "B.B. King"
    ISRC USVI21200666
    FLAGS DCP
    INDEX 01 55:39:11
  TRACK 22 AUDIO
    TITLE "Shut Your Mouth"
    PERFORMER "B.B. King"
    ISRC USVI21200667
    FLAGS DCP
    INDEX 01 58:41:61
  TRACK 23 AUDIO
    TITLE "Boogie Rock"
    PERFORMER "B.B. King"
    ISRC USVI21200668
    FLAGS DCP
    INDEX 01 61:23:09
  TRACK 24 AUDIO
    TITLE "Ten Long Years"
    PERFORMER "B.B. King"
    ISRC USVI21200669
    FLAGS DCP
    INDEX 01 64:28:54
  TRACK 25 AUDIO
    TITLE "Crying Won't Help You"
    PERFORMER "B.B. King"
    ISRC USVI20201063
    FLAGS DCP
    INDEX 01 67:16:68
  TRACK 26 AUDIO
    TITLE "Bad Luck"
    PERFORMER "B.B. King"
    ISRC USVI20100745
    FLAGS DCP
    INDEX 01 70:17:11
  TRACK 27 AUDIO
    TITLE "Troubles, Troubles, Troubles"
    PERFORMER "B.B. King"
    ISRC USVI21200671
    FLAGS DCP
    INDEX 01 73:11:57

CD 02 - Rock Me Baby 1957-1962 | 01:18:42

01.Sweet Little Angel (03:13)
02.Early In The Morning (02:36)
03.(I'm Gonna) Quit My Baby (02:34)
04.On My Word Of Honor (02:56)
05.Days Of Old (02:30)
06.Recession Blues (02:23)
07.Please Accept My Love (02:34)
08.Everyday I Have The Blues (05:07)
09.Precious Lord (03:23)
10.Sweet Sixteen, Parts 1 & 2 (06:13)
11.Don't Get Around Much Anymore (03:17)
12.I'll Survive (02:42)
13.(I've) Got A Right To Love My Baby (03:15)
14.It's My Own Fault (03:34)
15.You Done Lost Your Good Thing Now (05:11)
16.Walking Dr. Bill (03:42)
17.Catfish Blues (Fishin' After Me) (02:33)
18.Partin' Time (03:02)
19.You're Breaking My Heart (04:14)
20.Rock Me Baby (03:01)
21.Blue Shadows (03:48)
22.The Jungle (03:16)
23.That Evil Child (03:52)

лог создания рипа

Exact Audio Copy V1.0 beta 3 from 29. August 2011
EAC extraction logfile from 22. November 2012, 20:15
B.B. King / Ladies & Gentlemen...Mr. B.B. King CD02: Rock Me Baby (1957-1962)
Used drive  : PLEXTOR BD-R  PX-B950SA   Adapter: 6  ID: 0
Read mode               : Secure
Utilize accurate stream : Yes
Defeat audio cache      : Yes
Make use of C2 pointers : No
Read offset correction                      : 6
Overread into Lead-In and Lead-Out          : No
Fill up missing offset samples with silence : Yes
Delete leading and trailing silent blocks   : No
Null samples used in CRC calculations       : Yes
Used interface                              : Native Win32 interface for Win NT & 2000
Used output format : Internal WAV Routines
Sample format      : 44.100 Hz; 16 Bit; Stereo
TOC of the extracted CD
     Track |   Start  |  Length  | Start sector | End sector
    ---------------------------------------------------------
        1  |  0:00.00 |  3:12.74 |         0    |    14473
        2  |  3:12.74 |  2:35.25 |     14474    |    26123
        3  |  5:48.24 |  2:33.10 |     26124    |    37608
        4  |  8:21.34 |  2:55.03 |     37609    |    50736
        5  | 11:16.37 |  2:29.15 |     50737    |    61926
        6  | 13:45.52 |  2:22.03 |     61927    |    72579
        7  | 16:07.55 |  2:33.37 |     72580    |    84091
        8  | 18:41.17 |  5:06.04 |     84092    |   107045
        9  | 23:47.21 |  3:22.32 |    107046    |   122227
       10  | 27:09.53 |  6:12.60 |    122228    |   150187
       11  | 33:22.38 |  3:16.19 |    150188    |   164906
       12  | 36:38.57 |  2:41.21 |    164907    |   177002
       13  | 39:20.03 |  3:14.73 |    177003    |   191625
       14  | 42:35.01 |  3:33.60 |    191626    |   207660
       15  | 46:08.61 |  5:10.29 |    207661    |   230939
       16  | 51:19.15 |  3:41.27 |    230940    |   247541
       17  | 55:00.42 |  2:32.31 |    247542    |   258972
       18  | 57:32.73 |  3:01.29 |    258973    |   272576
       19  | 60:34.27 |  4:13.73 |    272577    |   291624
       20  | 64:48.25 |  3:00.01 |    291625    |   305125
       21  | 67:48.26 |  3:47.22 |    305126    |   322172
       22  | 71:35.48 |  3:15.06 |    322173    |   336803
       23  | 74:50.54 |  3:51.11 |    336804    |   354139
Range status and errors
Selected range
     Filename C:\Users\Meijin\Desktop\Lossless Galaxy Rip by ALLexxess\BB King\2012 Ladies & Gentlemen...Mr. B.B. King (10CD Box Set Universal Music)\CD02 Rock Me Baby 1956-1962\Ladies & Gentlemen...Mr. B.B. King CD02.wav
     Peak level 97.2 %
     Extraction speed 8.8 X
     Range quality 100.0 %
     Test CRC 4D46DAED
     Copy CRC 4D46DAED
     Copy OK
No errors occurred
AccurateRip summary
Track  1  not present in database
Track  2  not present in database
Track  3  not present in database
Track  4  not present in database
Track  5  not present in database
Track  6  not present in database
Track  7  not present in database
Track  8  not present in database
Track  9  not present in database
Track 10  not present in database
Track 11  not present in database
Track 12  not present in database
Track 13  not present in database
Track 14  not present in database
Track 15  not present in database
Track 16  not present in database
Track 17  not present in database
Track 18  not present in database
Track 19  not present in database
Track 20  not present in database
Track 21  not present in database
Track 22  not present in database
Track 23  not present in database
None of the tracks are present in the AccurateRip database
End of status report

содержание индексной карты *cue

REM GENRE "Blues / Jazz / Soul"
REM DATE 2012
REM DISCID 39127117
REM COMMENT "ExactAudioCopy v1.0b3"
PERFORMER "B.B. King"
TITLE "Ladies & Gentlemen...Mr. B.B. King CD02: Rock Me Baby (1957-1962)"
FILE "Ladies & Gentlemen...Mr. B.B. King CD02.flac" WAVE
  TRACK 01 AUDIO
    TITLE "Sweet Little Angel"
    PERFORMER "B.B. King"
    FLAGS DCP
    INDEX 01 00:00:00
  TRACK 02 AUDIO
    TITLE "Early In The Morning"
    PERFORMER "B.B. King"
    FLAGS DCP
    INDEX 01 03:12:74
  TRACK 03 AUDIO
    TITLE "(I'm Gonna) Quit My Baby"
    PERFORMER "B.B. King"
    FLAGS DCP
    INDEX 00 05:48:23
    INDEX 01 05:48:24
  TRACK 04 AUDIO
    TITLE "On My Word Of Honor"
    PERFORMER "B.B. King"
    FLAGS DCP
    INDEX 00 08:21:33
    INDEX 01 08:21:34
  TRACK 05 AUDIO
    TITLE "Days Of Old"
    PERFORMER "B.B. King"
    FLAGS DCP
    INDEX 00 11:16:36
    INDEX 01 11:16:37
  TRACK 06 AUDIO
    TITLE "Recession Blues"
    PERFORMER "B.B. King"
    FLAGS DCP
    INDEX 00 13:45:51
    INDEX 01 13:45:52
  TRACK 07 AUDIO
    TITLE "Please Accept My Love"
    PERFORMER "B.B. King"
    FLAGS DCP
    INDEX 00 16:07:54
    INDEX 01 16:07:55
  TRACK 08 AUDIO
    TITLE "Everyday I Have The Blues"
    PERFORMER "B.B. King"
    FLAGS DCP
    INDEX 00 18:41:16
    INDEX 01 18:41:17
  TRACK 09 AUDIO
    TITLE "Precious Lord"
    PERFORMER "B.B. King"
    FLAGS DCP
    INDEX 00 23:47:20
    INDEX 01 23:47:21
  TRACK 10 AUDIO
    TITLE "Sweet Sixteen, Parts 1 & 2"
    PERFORMER "B.B. King"
    FLAGS DCP
    INDEX 00 27:09:52
    INDEX 01 27:09:53
  TRACK 11 AUDIO
    TITLE "Don't Get Around Much Anymore"
    PERFORMER "B.B. King"
    FLAGS DCP
    INDEX 00 33:22:37
    INDEX 01 33:22:38
  TRACK 12 AUDIO
    TITLE "I'll Survive"
    PERFORMER "B.B. King"
    FLAGS DCP
    INDEX 00 36:38:56
    INDEX 01 36:38:57
  TRACK 13 AUDIO
    TITLE "(I've) Got A Right To Love My Baby"
    PERFORMER "B.B. King"
    FLAGS DCP
    INDEX 00 39:20:02
    INDEX 01 39:20:03
  TRACK 14 AUDIO
    TITLE "It's My Own Fault"
    PERFORMER "B.B. King"
    FLAGS DCP
    INDEX 00 42:35:00
    INDEX 01 42:35:01
  TRACK 15 AUDIO
    TITLE "You Done Lost Your Good Thing Now"
    PERFORMER "B.B. King"
    FLAGS DCP
    INDEX 00 46:08:60
    INDEX 01 46:08:61
  TRACK 16 AUDIO
    TITLE "Walking Dr. Bill"
    PERFORMER "B.B. King"
    FLAGS DCP
    INDEX 00 51:19:14
    INDEX 01 51:19:15
  TRACK 17 AUDIO
    TITLE "Catfish Blues (Fishin' After Me)"
    PERFORMER "B.B. King"
    FLAGS DCP
    INDEX 00 55:00:41
    INDEX 01 55:00:42
  TRACK 18 AUDIO
    TITLE "Partin' Time"
    PERFORMER "B.B. King"
    FLAGS DCP
    INDEX 01 57:32:73
  TRACK 19 AUDIO
    TITLE "You're Breaking My Heart"
    PERFORMER "B.B. King"
    FLAGS DCP
    INDEX 00 60:34:26
    INDEX 01 60:34:27
  TRACK 20 AUDIO
    TITLE "Rock Me Baby"
    PERFORMER "B.B. King"
    FLAGS DCP
    INDEX 00 64:48:24
    INDEX 01 64:48:25
  TRACK 21 AUDIO
    TITLE "Blue Shadows"
    PERFORMER "B.B. King"
    FLAGS DCP
    INDEX 00 67:48:25
    INDEX 01 67:48:26
  TRACK 22 AUDIO
    TITLE "The Jungle"
    PERFORMER "B.B. King"
    FLAGS DCP
    INDEX 01 71:35:48
  TRACK 23 AUDIO
    TITLE "That Evil Child"
    PERFORMER "B.B. King"
    FLAGS DCP
    INDEX 00 74:50:53
    INDEX 01 74:50:54

CD 03 - How Blue Can You Get 1962-1966 | 01:17:44

01.You Ask Me (02:11)
02.I'm Gonna Sit In 'Til You Give In (02:14)
03.Blues At Midnight (02:59)
04.My Baby's Coming Home (02:09)
05.Chains Of Love (02:36)
06.Sneaking Around (02:08)
07.Slowly Losing My Mind (02:33)
08.How Blue Can You Get? (02:43)
09.Whole Lotta Lovin' (02:27)
10.I Wonder Why (03:07)
11.Please Accept My Love (02:58)
12.Help The Poor (02:38)
13.Never Trust A Woman (02:37)
14.Worryin' Blues (02:56)
15.Stop Leading Me On (02:25)
16.Everyday I Have The Blues (Live) (03:09)
17.Sweet Little Angel (Live) (04:11)
18.It's My Own Fault (Live) (03:08)
19.How Blue Can You Get (Live) (03:36)
20.Please Love Me (Live) (03:01)
21.Tired Of Your Jive (02:11)
22.All Over Again (02:36)
23.I'd Rather Drink Muddy Water (02:22)
24.Cherry Red (02:27)
25.You're Still A Square (02:24)
26.Don't Answer The Door, Parts 1 & 2 (05:12)
27.Waitin' On You (02:27)
28.Night Life (02:35)

лог создания рипа

Exact Audio Copy V1.0 beta 3 from 29. August 2011
EAC extraction logfile from 22. November 2012, 19:29
B.B. King / Ladies & Gentlemen...Mr. B.B. King CD03: How Blue Can You Get (1962-1966)
Used drive  : PLEXTOR BD-R  PX-B950SA   Adapter: 6  ID: 0
Read mode               : Secure
Utilize accurate stream : Yes
Defeat audio cache      : Yes
Make use of C2 pointers : No
Read offset correction                      : 6
Overread into Lead-In and Lead-Out          : No
Fill up missing offset samples with silence : Yes
Delete leading and trailing silent blocks   : No
Null samples used in CRC calculations       : Yes
Used interface                              : Native Win32 interface for Win NT & 2000
Used output format : Internal WAV Routines
Sample format      : 44.100 Hz; 16 Bit; Stereo
TOC of the extracted CD
     Track |   Start  |  Length  | Start sector | End sector
    ---------------------------------------------------------
        1  |  0:00.00 |  2:10.18 |         0    |     9767
        2  |  2:10.18 |  2:13.66 |      9768    |    19808
        3  |  4:24.09 |  2:58.28 |     19809    |    33186
        4  |  7:22.37 |  2:08.34 |     33187    |    42820
        5  |  9:30.71 |  2:35.23 |     42821    |    54468
        6  | 12:06.19 |  2:07.10 |     54469    |    64003
        7  | 14:13.29 |  2:32.11 |     64004    |    75414
        8  | 16:45.40 |  2:42.61 |     75415    |    87625
        9  | 19:28.26 |  2:26.56 |     87626    |    98631
       10  | 21:55.07 |  3:06.11 |     98632    |   112592
       11  | 25:01.18 |  2:57.14 |    112593    |   125881
       12  | 27:58.32 |  2:37.26 |    125882    |   137682
       13  | 30:35.58 |  2:36.18 |    137683    |   149400
       14  | 33:12.01 |  2:55.05 |    149401    |   162530
       15  | 36:07.06 |  2:24.53 |    162531    |   173383
       16  | 38:31.59 |  3:08.16 |    173384    |   187499
       17  | 41:40.00 |  4:10.63 |    187500    |   206312
       18  | 45:50.63 |  3:07.71 |    206313    |   220408
       19  | 48:58.59 |  3:35.02 |    220409    |   236535
       20  | 52:33.61 |  3:00.42 |    236536    |   250077
       21  | 55:34.28 |  2:10.15 |    250078    |   259842
       22  | 57:44.43 |  2:36.00 |    259843    |   271542
       23  | 60:20.43 |  2:21.60 |    271543    |   282177
       24  | 62:42.28 |  2:26.19 |    282178    |   293146
       25  | 65:08.47 |  2:23.72 |    293147    |   303943
       26  | 67:32.44 |  5:11.04 |    303944    |   327272
       27  | 72:43.48 |  2:26.21 |    327273    |   338243
       28  | 75:09.69 |  2:34.03 |    338244    |   349796
Range status and errors
Selected range
     Filename C:\Users\Meijin\Desktop\Lossless Galaxy Rip by ALLexxess\BB King\2012 Ladies & Gentlemen...Mr. B.B. King (10CD Box Set Universal Music)\CD03 How Blue Can You Get 1963-1966\Ladies & Gentlemen...Mr. B.B. King CD03.wav
     Peak level 100.0 %
     Extraction speed 8.7 X
     Range quality 99.9 %
     Test CRC 4D2B274D
     Copy CRC 4D2B274D
     Copy OK
No errors occurred
AccurateRip summary
Track  1  not present in database
Track  2  not present in database
Track  3  not present in database
Track  4  not present in database
Track  5  not present in database
Track  6  not present in database
Track  7  not present in database
Track  8  not present in database
Track  9  not present in database
Track 10  not present in database
Track 11  not present in database
Track 12  not present in database
Track 13  not present in database
Track 14  not present in database
Track 15  not present in database
Track 16  not present in database
Track 17  not present in database
Track 18  not present in database
Track 19  not present in database
Track 20  not present in database
Track 21  not present in database
Track 22  not present in database
Track 23  not present in database
Track 24  not present in database
Track 25  not present in database
Track 26  not present in database
Track 27  not present in database
Track 28  not present in database
None of the tracks are present in the AccurateRip database
End of status report

содержание индексной карты *cue

REM GENRE "Blues / Jazz / Soul"
REM DATE 2012
REM DISCID 7E12371C
REM COMMENT "ExactAudioCopy v1.0b3"
PERFORMER "B.B. King"
TITLE "Ladies & Gentlemen...Mr. B.B. King CD03: How Blue Can You Get (1962-1966)"
FILE "Ladies & Gentlemen...Mr. B.B. King CD03.flac" WAVE
  TRACK 01 AUDIO
    TITLE "You Ask Me"
    PERFORMER "B.B. King"
    FLAGS DCP
    INDEX 01 00:00:00
  TRACK 02 AUDIO
    TITLE "I'm Gonna Sit In 'Til You Give In"
    PERFORMER "B.B. King"
    FLAGS DCP
    INDEX 01 02:10:18
  TRACK 03 AUDIO
    TITLE "Blues At Midnight"
    PERFORMER "B.B. King"
    FLAGS DCP
    INDEX 01 04:24:09
  TRACK 04 AUDIO
    TITLE "My Baby's Coming Home"
    PERFORMER "B.B. King"
    FLAGS DCP
    INDEX 01 07:22:37
  TRACK 05 AUDIO
    TITLE "Chains Of Love"
    PERFORMER "B.B. King"
    FLAGS DCP
    INDEX 01 09:30:71
  TRACK 06 AUDIO
    TITLE "Sneaking Around"
    PERFORMER "B.B. King"
    FLAGS DCP
    INDEX 01 12:06:19
  TRACK 07 AUDIO
    TITLE "Slowly Losing My Mind"
    PERFORMER "B.B. King"
    FLAGS DCP
    INDEX 01 14:13:29
  TRACK 08 AUDIO
    TITLE "How Blue Can You Get?"
    PERFORMER "B.B. King"
    FLAGS DCP
    INDEX 01 16:45:40
  TRACK 09 AUDIO
    TITLE "Whole Lotta Lovin'"
    PERFORMER "B.B. King"
    FLAGS DCP
    INDEX 01 19:28:26
  TRACK 10 AUDIO
    TITLE "I Wonder Why"
    PERFORMER "B.B. King"
    FLAGS DCP
    INDEX 01 21:55:07
  TRACK 11 AUDIO
    TITLE "Please Accept My Love"
    PERFORMER "B.B. King"
    FLAGS DCP
    INDEX 01 25:01:18
  TRACK 12 AUDIO
    TITLE "Help The Poor"
    PERFORMER "B.B. King"
    FLAGS DCP
    INDEX 01 27:58:32
  TRACK 13 AUDIO
    TITLE "Never Trust A Woman"
    PERFORMER "B.B. King"
    FLAGS DCP
    INDEX 01 30:35:58
  TRACK 14 AUDIO
    TITLE "Worryin' Blues"
    PERFORMER "B.B. King"
    FLAGS DCP
    INDEX 01 33:12:01
  TRACK 15 AUDIO
    TITLE "Stop Leading Me On"
    PERFORMER "B.B. King"
    FLAGS DCP
    INDEX 01 36:07:06
  TRACK 16 AUDIO
    TITLE "Everyday I Have The Blues (Live)"
    PERFORMER "B.B. King"
    FLAGS DCP
    INDEX 01 38:31:59
  TRACK 17 AUDIO
    TITLE "Sweet Little Angel (Live)"
    PERFORMER "B.B. King"
    FLAGS DCP
    INDEX 01 41:40:00
  TRACK 18 AUDIO
    TITLE "It's My Own Fault (Live)"
    PERFORMER "B.B. King"
    FLAGS DCP
    INDEX 01 45:50:63
  TRACK 19 AUDIO
    TITLE "How Blue Can You Get (Live)"
    PERFORMER "B.B. King"
    FLAGS DCP
    INDEX 01 48:58:59
  TRACK 20 AUDIO
    TITLE "Please Love Me (Live)"
    PERFORMER "B.B. King"
    FLAGS DCP
    INDEX 01 52:33:61
  TRACK 21 AUDIO
    TITLE "Tired Of Your Jive"
    PERFORMER "B.B. King"
    FLAGS DCP
    INDEX 01 55:34:28
  TRACK 22 AUDIO
    TITLE "All Over Again"
    PERFORMER "B.B. King"
    FLAGS DCP
    INDEX 01 57:44:43
  TRACK 23 AUDIO
    TITLE "I'd Rather Drink Muddy Water"
    PERFORMER "B.B. King"
    FLAGS DCP
    INDEX 01 60:20:43
  TRACK 24 AUDIO
    TITLE "Cherry Red"
    PERFORMER "B.B. King"
    FLAGS DCP
    INDEX 01 62:42:28
  TRACK 25 AUDIO
    TITLE "You're Still A Square"
    PERFORMER "B.B. King"
    FLAGS DCP
    INDEX 01 65:08:47
  TRACK 26 AUDIO
    TITLE "Don't Answer The Door, Parts 1 & 2"
    PERFORMER "B.B. King"
    FLAGS DCP
    INDEX 01 67:32:44
  TRACK 27 AUDIO
    TITLE "Waitin' On You"
    PERFORMER "B.B. King"
    FLAGS DCP
    INDEX 01 72:43:48
  TRACK 28 AUDIO
    TITLE "Night Life"
    PERFORMER "B.B. King"
    FLAGS DCP
    INDEX 01 75:09:69

CD 04 - Why I Sing The Blues 1967-1969 | 01:15:34

01.Gambler's Blues (Live) (05:14)
02.Buzz Me (Live) (04:13)
03.Sweet Sixteen, Parts 1 & 2 (Live) (06:14)
04.Think It Over (02:51)
05.I Done Got Wise (02:22)
06.Worried Dream (02:56)
07.Paying The Cost To Be The Boss (02:36)
08.I'm Gonna Do What They Do To Me (02:48)
09.Dance With Me (03:22)
10.Lucille (10:15)
11.Watch Yourself (05:50)
12.You Put It On Me (02:48)
13.Messy But Good (02:36)
14.Get Myself Somebody (02:37)
15.My Mood (Live) (02:48)
16.I Want You So Bad (04:16)
17.Get Off My Back Woman (03:18)
18.Why I Sing The Blues (08:38)

лог создания рипа

Exact Audio Copy V1.0 beta 3 from 29. August 2011
EAC extraction logfile from 22. November 2012, 18:50
B.B. King / Ladies & Gentlemen...Mr. B.B. King CD04: Why I Sing The Blues (1967-1969)
Used drive  : PLEXTOR BD-R  PX-B950SA   Adapter: 6  ID: 0
Read mode               : Secure
Utilize accurate stream : Yes
Defeat audio cache      : Yes
Make use of C2 pointers : No
Read offset correction                      : 6
Overread into Lead-In and Lead-Out          : No
Fill up missing offset samples with silence : Yes
Delete leading and trailing silent blocks   : No
Null samples used in CRC calculations       : Yes
Used interface                              : Native Win32 interface for Win NT & 2000
Used output format : Internal WAV Routines
Sample format      : 44.100 Hz; 16 Bit; Stereo
TOC of the extracted CD
     Track |   Start  |  Length  | Start sector | End sector
    ---------------------------------------------------------
        1  |  0:00.00 |  5:13.21 |         0    |    23495
        2  |  5:13.21 |  4:12.63 |     23496    |    42458
        3  |  9:26.09 |  6:13.53 |     42459    |    70486
        4  | 15:39.62 |  2:50.31 |     70487    |    83267
        5  | 18:30.18 |  2:21.42 |     83268    |    93884
        6  | 20:51.60 |  2:55.41 |     93885    |   107050
        7  | 23:47.26 |  2:35.12 |    107051    |   118687
        8  | 26:22.38 |  2:47.30 |    118688    |   131242
        9  | 29:09.68 |  3:21.42 |    131243    |   146359
       10  | 32:31.35 | 10:14.61 |    146360    |   192470
       11  | 42:46.21 |  5:49.54 |    192471    |   218699
       12  | 48:36.00 |  2:47.44 |    218700    |   231268
       13  | 51:23.44 |  2:35.08 |    231269    |   242901
       14  | 53:58.52 |  2:36.54 |    242902    |   254655
       15  | 56:35.31 |  2:47.58 |    254656    |   267238
       16  | 59:23.14 |  4:15.54 |    267239    |   286417
       17  | 63:38.68 |  3:17.07 |    286418    |   301199
       18  | 66:56.00 |  8:37.26 |    301200    |   340000
Range status and errors
Selected range
     Filename C:\Users\Meijin\Desktop\Lossless Galaxy Rip by ALLexxess\BB King\2012 Ladies & Gentlemen...Mr. B.B. King (10CD Box Set Universal Music)\CD04 Why I Sing The Blues 1966-1969\Ladies & Gentlemen...Mr. B.B. King CD04.wav
     Peak level 100.0 %
     Extraction speed 8.7 X
     Range quality 100.0 %
     Test CRC 98E11B1E
     Copy CRC 98E11B1E
     Copy OK
No errors occurred
AccurateRip summary
Track  1  not present in database
Track  2  not present in database
Track  3  not present in database
Track  4  not present in database
Track  5  not present in database
Track  6  not present in database
Track  7  not present in database
Track  8  not present in database
Track  9  not present in database
Track 10  not present in database
Track 11  not present in database
Track 12  not present in database
Track 13  not present in database
Track 14  not present in database
Track 15  not present in database
Track 16  not present in database
Track 17  not present in database
Track 18  not present in database
None of the tracks are present in the AccurateRip database
End of status report

содержание индексной карты *cue

REM GENRE "Blues / Jazz / Soul"
REM DATE 2012
REM DISCID 0411B512
REM COMMENT "ExactAudioCopy v1.0b3"
PERFORMER "B.B. King"
TITLE "Ladies & Gentlemen...Mr. B.B. King CD04: Why I Sing The Blues (1967-1969)"
FILE "Ladies & Gentlemen...Mr. B.B. King CD04.flac" WAVE
  TRACK 01 AUDIO
    TITLE "Gambler's Blues (Live)"
    PERFORMER "B.B. King"
    FLAGS DCP
    INDEX 01 00:00:00
  TRACK 02 AUDIO
    TITLE "Buzz Me (Live)"
    PERFORMER "B.B. King"
    FLAGS DCP
    INDEX 01 05:13:21
  TRACK 03 AUDIO
    TITLE "Sweet Sixteen, Parts 1 & 2 (Live)"
    PERFORMER "B.B. King"
    FLAGS DCP
    INDEX 01 09:26:09
  TRACK 04 AUDIO
    TITLE "Think It Over"
    PERFORMER "B.B. King"
    FLAGS DCP
    INDEX 01 15:39:62
  TRACK 05 AUDIO
    TITLE "I Done Got Wise"
    PERFORMER "B.B. King"
    FLAGS DCP
    INDEX 01 18:30:18
  TRACK 06 AUDIO
    TITLE "Worried Dream"
    PERFORMER "B.B. King"
    FLAGS DCP
    INDEX 01 20:51:60
  TRACK 07 AUDIO
    TITLE "Paying The Cost To Be The Boss"
    PERFORMER "B.B. King"
    FLAGS DCP
    INDEX 01 23:47:26
  TRACK 08 AUDIO
    TITLE "I'm Gonna Do What They Do To Me"
    PERFORMER "B.B. King"
    FLAGS DCP
    INDEX 01 26:22:38
  TRACK 09 AUDIO
    TITLE "Dance With Me"
    PERFORMER "B.B. King"
    FLAGS DCP
    INDEX 01 29:09:68
  TRACK 10 AUDIO
    TITLE "Lucille"
    PERFORMER "B.B. King"
    FLAGS DCP
    INDEX 01 32:31:35
  TRACK 11 AUDIO
    TITLE "Watch Yourself"
    PERFORMER "B.B. King"
    FLAGS DCP
    INDEX 01 42:46:21
  TRACK 12 AUDIO
    TITLE "You Put It On Me"
    PERFORMER "B.B. King"
    FLAGS DCP
    INDEX 01 48:36:00
  TRACK 13 AUDIO
    TITLE "Messy But Good"
    PERFORMER "B.B. King"
    FLAGS DCP
    INDEX 01 51:23:44
  TRACK 14 AUDIO
    TITLE "Get Myself Somebody"
    PERFORMER "B.B. King"
    FLAGS DCP
    INDEX 01 53:58:52
  TRACK 15 AUDIO
    TITLE "My Mood (Live)"
    PERFORMER "B.B. King"
    FLAGS DCP
    INDEX 01 56:35:31
  TRACK 16 AUDIO
    TITLE "I Want You So Bad"
    PERFORMER "B.B. King"
    FLAGS DCP
    INDEX 01 59:23:14
  TRACK 17 AUDIO
    TITLE "Get Off My Back Woman"
    PERFORMER "B.B. King"
    FLAGS DCP
    INDEX 01 63:38:68
  TRACK 18 AUDIO
    TITLE "Why I Sing The Blues"
    PERFORMER "B.B. King"
    FLAGS DCP
    INDEX 01 66:56:00

CD 05 - The Thrill Is Gone 1969-1971 | 01:17:47

01.The Thrill Is Gone (05:26)
02.Confessin' The Blues (04:56)
03.So Excited (05:38)
04.No Good (04:38)
05.Go Underground (04:06)
06.Nobody Loves Me But My Mother (01:28)
07.Chains And Things (04:56)
08.Ask Me No Questions (03:10)
09.Hummingbird (04:39)
10.Everyday I Have The Blues (01:43)
11.How Blue Can You Get? (Live) (05:13)
12.Worry, Worry (Live) (09:56)
13.Sweet Sixteen (Live) (05:59)
14.Eyesight To The Blind (Live) (04:04)
15.Niji Baby (Live) (06:23)
16.The Thrill Is Gone (Live) (05:38)

лог создания рипа

Exact Audio Copy V1.0 beta 3 from 29. August 2011
EAC extraction logfile from 21. November 2012, 22:14
B.B. King / Ladies & Gentlemen...Mr. B.B. King CD05: The Thrill Is Gone (1969-1971)
Used drive  : PLEXTOR BD-R  PX-B950SA   Adapter: 6  ID: 0
Read mode               : Secure
Utilize accurate stream : Yes
Defeat audio cache      : Yes
Make use of C2 pointers : No
Read offset correction                      : 6
Overread into Lead-In and Lead-Out          : No
Fill up missing offset samples with silence : Yes
Delete leading and trailing silent blocks   : No
Null samples used in CRC calculations       : Yes
Used interface                              : Native Win32 interface for Win NT & 2000
Used output format : Internal WAV Routines
Sample format      : 44.100 Hz; 16 Bit; Stereo
TOC of the extracted CD
     Track |   Start  |  Length  | Start sector | End sector
    ---------------------------------------------------------
        1  |  0:00.00 |  5:25.27 |         0    |    24401
        2  |  5:25.27 |  4:55.34 |     24402    |    46560
        3  | 10:20.61 |  5:37.38 |     46561    |    71873
        4  | 15:58.24 |  4:37.31 |     71874    |    92679
        5  | 20:35.55 |  4:05.67 |     92680    |   111121
        6  | 24:41.47 |  1:27.35 |    111122    |   117681
        7  | 26:09.07 |  4:55.39 |    117682    |   139845
        8  | 31:04.46 |  3:09.70 |    139846    |   154090
        9  | 34:14.41 |  4:38.30 |    154091    |   174970
       10  | 38:52.71 |  1:42.51 |    174971    |   182671
       11  | 40:35.47 |  5:12.63 |    182672    |   206134
       12  | 45:48.35 |  9:55.41 |    206135    |   250800
       13  | 55:44.01 |  5:58.50 |    250801    |   277700
       14  | 61:42.51 |  4:03.66 |    277701    |   295991
       15  | 65:46.42 |  6:22.45 |    295992    |   324686
       16  | 72:09.12 |  5:37.05 |    324687    |   349966
Range status and errors
Selected range
     Filename C:\Users\Meijin\Desktop\Lossless Galaxy Rip by ALLexxess\BB King\2012 Ladies & Gentlemen...Mr. B.B. King (10CD Box Set Universal Music)\CD05 The Thrill Is Gone 1969-1971\Ladies & Gentlemen...Mr. B.B. King CD05.wav
     Peak level 100.0 %
     Extraction speed 4.0 X
     Range quality 100.0 %
     Test CRC BF7A2048
     Copy CRC BF7A2048
     Copy OK
No errors occurred
AccurateRip summary
Track  1  not present in database
Track  2  not present in database
Track  3  not present in database
Track  4  not present in database
Track  5  not present in database
Track  6  not present in database
Track  7  not present in database
Track  8  not present in database
Track  9  not present in database
Track 10  not present in database
Track 11  not present in database
Track 12  not present in database
Track 13  not present in database
Track 14  not present in database
Track 15  not present in database
Track 16  not present in database
None of the tracks are present in the AccurateRip database
End of status report

содержание индексной карты *cue

REM GENRE "Blues / Jazz / Soul"
REM DATE 2012
REM DISCID DF123A10
REM COMMENT "ExactAudioCopy v1.0b3"
PERFORMER "B.B. King"
TITLE "Ladies & Gentlemen...Mr. B.B. King CD05: The Thrill Is Gone (1969-1971)"
FILE "Ladies & Gentlemen...Mr. B.B. King CD05.flac" WAVE
  TRACK 01 AUDIO
    TITLE "The Thrill Is Gone"
    PERFORMER "B.B. King"
    FLAGS DCP
    INDEX 01 00:00:00
  TRACK 02 AUDIO
    TITLE "Confessin' The Blues"
    PERFORMER "B.B. King"
    FLAGS DCP
    INDEX 01 05:25:27
  TRACK 03 AUDIO
    TITLE "So Excited"
    PERFORMER "B.B. King"
    FLAGS DCP
    INDEX 01 10:20:61
  TRACK 04 AUDIO
    TITLE "No Good"
    PERFORMER "B.B. King"
    FLAGS DCP
    INDEX 01 15:58:24
  TRACK 05 AUDIO
    TITLE "Go Underground"
    PERFORMER "B.B. King"
    FLAGS DCP
    INDEX 01 20:35:55
  TRACK 06 AUDIO
    TITLE "Nobody Loves Me But My Mother"
    PERFORMER "B.B. King"
    FLAGS DCP
    INDEX 01 24:41:47
  TRACK 07 AUDIO
    TITLE "Chains And Things"
    PERFORMER "B.B. King"
    FLAGS DCP
    INDEX 01 26:09:07
  TRACK 08 AUDIO
    TITLE "Ask Me No Questions"
    PERFORMER "B.B. King"
    FLAGS DCP
    INDEX 01 31:04:46
  TRACK 09 AUDIO
    TITLE "Hummingbird"
    PERFORMER "B.B. King"
    FLAGS DCP
    INDEX 01 34:14:41
  TRACK 10 AUDIO
    TITLE "Everyday I Have The Blues"
    PERFORMER "B.B. King"
    FLAGS DCP
    INDEX 01 38:52:71
  TRACK 11 AUDIO
    TITLE "How Blue Can You Get? (Live)"
    PERFORMER "B.B. King"
    FLAGS DCP
    INDEX 01 40:35:47
  TRACK 12 AUDIO
    TITLE "Worry, Worry (Live)"
    PERFORMER "B.B. King"
    FLAGS DCP
    INDEX 01 45:48:35
  TRACK 13 AUDIO
    TITLE "Sweet Sixteen (Live)"
    PERFORMER "B.B. King"
    FLAGS DCP
    INDEX 01 55:44:01
  TRACK 14 AUDIO
    TITLE "Eyesight To The Blind (Live)"
    PERFORMER "B.B. King"
    FLAGS DCP
    INDEX 01 61:42:51
  TRACK 15 AUDIO
    TITLE "Niji Baby (Live)"
    PERFORMER "B.B. King"
    FLAGS DCP
    INDEX 01 65:46:42
  TRACK 16 AUDIO
    TITLE "The Thrill Is Gone (Live)"
    PERFORMER "B.B. King"
    FLAGS DCP
    INDEX 01 72:09:12

CD 06 - Lucille Talks Back 1971-1977 | 01:17:48

01.I Got Some Help I Don't Need (05:59)
02.Blue Shadows (05:10)
03.Ghetto Woman (05:16)
04.Ain't Nobody Home (03:16)
05.Guess Who (04:11)
06.Five Long Years (05:17)
07.I Like To Live The Love (03:35)
08.To Know You Is To Love You (08:38)
09.Philadelphia (06:00)
10.3 O'Clock Blues (Live) (03:17)
11.Lucille Talks Back (02:29)
12.Reconsider Baby (02:57)
13.Don't Make Me Pay For His Mistakes (03:17)
14.Let The Good Times Roll (Live) (05:40)
15.Don't You Lie To Me (06:10)
16.Mother Fuyer (03:08)
17.The Same Love That Made Me Laugh (03:35)

лог создания рипа

Exact Audio Copy V1.0 beta 3 from 29. August 2011
EAC extraction logfile from 21. November 2012, 21:01
B.B. King / Ladies & Gentlemen...Mr. B.B. King CD06: Lucille Talks Back (1971-1977)
Used drive  : PLEXTOR BD-R  PX-B950SA   Adapter: 6  ID: 0
Read mode               : Secure
Utilize accurate stream : Yes
Defeat audio cache      : Yes
Make use of C2 pointers : No
Read offset correction                      : 6
Overread into Lead-In and Lead-Out          : No
Fill up missing offset samples with silence : Yes
Delete leading and trailing silent blocks   : No
Null samples used in CRC calculations       : Yes
Used interface                              : Native Win32 interface for Win NT & 2000
Used output format : Internal WAV Routines
Sample format      : 44.100 Hz; 16 Bit; Stereo
TOC of the extracted CD
     Track |   Start  |  Length  | Start sector | End sector
    ---------------------------------------------------------
        1  |  0:00.00 |  5:58.16 |         0    |    26865
        2  |  5:58.16 |  5:09.15 |     26866    |    50055
        3  | 11:07.31 |  5:15.43 |     50056    |    73723
        4  | 16:22.74 |  3:15.49 |     73724    |    88397
        5  | 19:38.48 |  4:10.61 |     88398    |   107208
        6  | 23:49.34 |  5:16.26 |    107209    |   130934
        7  | 29:05.60 |  3:34.24 |    130935    |   147008
        8  | 32:40.09 |  8:37.31 |    147009    |   185814
        9  | 41:17.40 |  5:59.37 |    185815    |   212776
       10  | 47:17.02 |  3:16.61 |    212777    |   227537
       11  | 50:33.63 |  2:28.44 |    227538    |   238681
       12  | 53:02.32 |  2:56.46 |    238682    |   251927
       13  | 55:59.03 |  3:16.50 |    251928    |   266677
       14  | 59:15.53 |  5:39.69 |    266678    |   292171
       15  | 64:55.47 |  6:09.18 |    292172    |   319864
       16  | 71:04.65 |  3:07.31 |    319865    |   333920
       17  | 74:12.21 |  3:34.71 |    333921    |   350041
Range status and errors
Selected range
     Filename C:\Users\Meijin\Desktop\Lossless Galaxy Rip by ALLexxess\BB King\2012 Ladies & Gentlemen...Mr. B.B. King (10CD Box Set Universal Music)\CD06 Lucille Talks Back 1971-1976\Ladies & Gentlemen...Mr. B.B. King CD06.wav
     Peak level 100.0 %
     Extraction speed 8.8 X
     Range quality 100.0 %
     Test CRC 9CA4314B
     Copy CRC 9CA4314B
     Copy OK
No errors occurred
AccurateRip summary
Track  1  not present in database
Track  2  not present in database
Track  3  not present in database
Track  4  not present in database
Track  5  not present in database
Track  6  not present in database
Track  7  not present in database
Track  8  not present in database
Track  9  not present in database
Track 10  not present in database
Track 11  not present in database
Track 12  not present in database
Track 13  not present in database
Track 14  not present in database
Track 15  not present in database
Track 16  not present in database
Track 17  not present in database
None of the tracks are present in the AccurateRip database
End of status report

содержание индексной карты *cue

REM GENRE "Blues / Jazz / Soul"
REM DATE 2012
REM DISCID 14123B11
REM COMMENT "ExactAudioCopy v1.0b3"
PERFORMER "B.B. King"
TITLE "Ladies & Gentlemen...Mr. B.B. King CD06: Lucille Talks Back (1971-1977)"
FILE "Ladies & Gentlemen...Mr. B.B. King CD06.flac" WAVE
  TRACK 01 AUDIO
    TITLE "I Got Some Help I Don't Need"
    PERFORMER "B.B. King"
    FLAGS DCP
    INDEX 01 00:00:00
  TRACK 02 AUDIO
    TITLE "Blue Shadows"
    PERFORMER "B.B. King"
    FLAGS DCP
    INDEX 01 05:58:16
  TRACK 03 AUDIO
    TITLE "Ghetto Woman"
    PERFORMER "B.B. King"
    FLAGS DCP
    INDEX 01 11:07:31
  TRACK 04 AUDIO
    TITLE "Ain't Nobody Home"
    PERFORMER "B.B. King"
    FLAGS DCP
    INDEX 01 16:22:74
  TRACK 05 AUDIO
    TITLE "Guess Who"
    PERFORMER "B.B. King"
    FLAGS DCP
    INDEX 01 19:38:48
  TRACK 06 AUDIO
    TITLE "Five Long Years"
    PERFORMER "B.B. King"
    FLAGS DCP
    INDEX 01 23:49:34
  TRACK 07 AUDIO
    TITLE "I Like To Live The Love"
    PERFORMER "B.B. King"
    FLAGS DCP
    INDEX 01 29:05:60
  TRACK 08 AUDIO
    TITLE "To Know You Is To Love You"
    PERFORMER "B.B. King"
    FLAGS DCP
    INDEX 01 32:40:09
  TRACK 09 AUDIO
    TITLE "Philadelphia"
    PERFORMER "B.B. King"
    FLAGS DCP
    INDEX 01 41:17:40
  TRACK 10 AUDIO
    TITLE "3 O'Clock Blues (Live)"
    PERFORMER "B.B. King"
    FLAGS DCP
    INDEX 01 47:17:02
  TRACK 11 AUDIO
    TITLE "Lucille Talks Back"
    PERFORMER "B.B. King"
    FLAGS DCP
    INDEX 01 50:33:63
  TRACK 12 AUDIO
    TITLE "Reconsider Baby"
    PERFORMER "B.B. King"
    FLAGS DCP
    INDEX 01 53:02:32
  TRACK 13 AUDIO
    TITLE "Don't Make Me Pay For His Mistakes"
    PERFORMER "B.B. King"
    FLAGS DCP
    INDEX 01 55:59:03
  TRACK 14 AUDIO
    TITLE "Let The Good Times Roll (Live)"
    PERFORMER "B.B. King"
    FLAGS DCP
    INDEX 01 59:15:53
  TRACK 15 AUDIO
    TITLE "Don't You Lie To Me"
    PERFORMER "B.B. King"
    FLAGS DCP
    INDEX 01 64:55:47
  TRACK 16 AUDIO
    TITLE "Mother Fuyer"
    PERFORMER "B.B. King"
    FLAGS DCP
    INDEX 01 71:04:65
  TRACK 17 AUDIO
    TITLE "The Same Love That Made Me Laugh"
    PERFORMER "B.B. King"
    FLAGS DCP
    INDEX 01 74:12:21

CD 07 - When It All Comes Down 1978-1983 | 01:13:31

01.When It All Comes Down (I'll Still Be Around) (04:13)
02.Hold On (I Feel Our Love Is Changing) (04:11)
03.Never Make Your Move Too Soon (05:33)
04.Better Not Look Down (03:22)
05.Happy Birthday Blues (03:17)
06.I've Always Been Lonely (05:28)
07.Caldonia (Live) (02:50)
08.I Got Some Help I Don't Need (Live) (05:23)
09.Life Ain't Nothing But A Party (06:16)
10.The Victim (06:18)
11.There Must Be A Better World Somewhere (05:39)
12.Nightlife / Please Send Me Somebody To Love (04:36)
13.Inflation Blues (04:16)
14.Sell My Monkey (03:07)
15.Darlin' You Know I Love You (04:49)
16.Make Love To Me (04:19)

лог создания рипа

Exact Audio Copy V1.0 beta 3 from 29. August 2011
EAC extraction logfile from 21. November 2012, 20:22
B.B. King / Ladies & Gentlemen...Mr. B.B. King CD07: When It All Comes Down (1978-1983)
Used drive  : PLEXTOR BD-R  PX-B950SA   Adapter: 6  ID: 0
Read mode               : Secure
Utilize accurate stream : Yes
Defeat audio cache      : Yes
Make use of C2 pointers : No
Read offset correction                      : 6
Overread into Lead-In and Lead-Out          : No
Fill up missing offset samples with silence : Yes
Delete leading and trailing silent blocks   : No
Null samples used in CRC calculations       : Yes
Used interface                              : Native Win32 interface for Win NT & 2000
Used output format : Internal WAV Routines
Sample format      : 44.100 Hz; 16 Bit; Stereo
TOC of the extracted CD
     Track |   Start  |  Length  | Start sector | End sector
    ---------------------------------------------------------
        1  |  0:00.00 |  4:12.60 |         0    |    18959
        2  |  4:12.60 |  4:10.64 |     18960    |    37773
        3  |  8:23.49 |  5:32.36 |     37774    |    62709
        4  | 13:56.10 |  3:21.72 |     62710    |    77856
        5  | 17:18.07 |  3:16.71 |     77857    |    92627
        6  | 20:35.03 |  5:27.26 |     92628    |   117178
        7  | 26:02.29 |  2:49.32 |    117179    |   129885
        8  | 28:51.61 |  5:22.59 |    129886    |   154094
        9  | 34:14.45 |  6:15.02 |    154095    |   182221
       10  | 40:29.47 |  6:17.35 |    182222    |   210531
       11  | 46:47.07 |  5:38.58 |    210532    |   235939
       12  | 52:25.65 |  4:35.24 |    235940    |   256588
       13  | 57:01.14 |  4:15.62 |    256589    |   275775
       14  | 61:17.01 |  3:06.12 |    275776    |   289737
       15  | 64:23.13 |  4:48.58 |    289738    |   311395
       16  | 69:11.71 |  4:18.19 |    311396    |   330764
Range status and errors
Selected range
     Filename C:\Users\Meijin\Desktop\Lossless Galaxy Rip by ALLexxess\BB King\2012 Ladies & Gentlemen...Mr. B.B. King (10CD Box Set Universal Music)\CD07 When It All Comes Down 1977-1982\Ladies & Gentlemen...Mr. B.B. King CD07.wav
     Peak level 100.0 %
     Extraction speed 8.6 X
     Range quality 100.0 %
     Test CRC F40E7204
     Copy CRC F40E7204
     Copy OK
No errors occurred
AccurateRip summary
Track  1  not present in database
Track  2  not present in database
Track  3  not present in database
Track  4  not present in database
Track  5  not present in database
Track  6  not present in database
Track  7  not present in database
Track  8  not present in database
Track  9  not present in database
Track 10  not present in database
Track 11  not present in database
Track 12  not present in database
Track 13  not present in database
Track 14  not present in database
Track 15  not present in database
Track 16  not present in database
None of the tracks are present in the AccurateRip database
End of status report

содержание индексной карты *cue

REM GENRE "Blues / Jazz / Soul"
REM DATE 2012
REM DISCID DB113A10
REM COMMENT "ExactAudioCopy v1.0b3"
PERFORMER "B.B. King"
TITLE "Ladies & Gentlemen...Mr. B.B. King CD07: When It All Comes Down (1978-1983)"
FILE "Ladies & Gentlemen...Mr. B.B. King CD07.flac" WAVE
  TRACK 01 AUDIO
    TITLE "When It All Comes Down (I'll Still Be Around)"
    PERFORMER "B.B. King"
    FLAGS DCP
    INDEX 01 00:00:00
  TRACK 02 AUDIO
    TITLE "Hold On (I Feel Our Love Is Changing)"
    PERFORMER "B.B. King"
    FLAGS DCP
    INDEX 01 04:12:60
  TRACK 03 AUDIO
    TITLE "Never Make Your Move Too Soon"
    PERFORMER "B.B. King"
    FLAGS DCP
    INDEX 01 08:23:49
  TRACK 04 AUDIO
    TITLE "Better Not Look Down"
    PERFORMER "B.B. King"
    FLAGS DCP
    INDEX 01 13:56:10
  TRACK 05 AUDIO
    TITLE "Happy Birthday Blues"
    PERFORMER "B.B. King"
    FLAGS DCP
    INDEX 01 17:18:07
  TRACK 06 AUDIO
    TITLE "I've Always Been Lonely"
    PERFORMER "B.B. King"
    FLAGS DCP
    INDEX 01 20:35:03
  TRACK 07 AUDIO
    TITLE "Caldonia (Live)"
    PERFORMER "B.B. King"
    FLAGS DCP
    INDEX 01 26:02:29
  TRACK 08 AUDIO
    TITLE "I Got Some Help I Don't Need (Live)"
    PERFORMER "B.B. King"
    FLAGS DCP
    INDEX 01 28:51:61
  TRACK 09 AUDIO
    TITLE "Life Ain't Nothing But A Party"
    PERFORMER "B.B. King"
    FLAGS DCP
    INDEX 01 34:14:45
  TRACK 10 AUDIO
    TITLE "The Victim"
    PERFORMER "B.B. King"
    FLAGS DCP
    INDEX 01 40:29:47
  TRACK 11 AUDIO
    TITLE "There Must Be A Better World Somewhere"
    PERFORMER "B.B. King"
    FLAGS DCP
    INDEX 01 46:47:07
  TRACK 12 AUDIO
    TITLE "Nightlife / Please Send Me Somebody To Love"
    PERFORMER "B.B. King"
    FLAGS DCP
    INDEX 01 52:25:65
  TRACK 13 AUDIO
    TITLE "Inflation Blues"
    PERFORMER "B.B. King"
    FLAGS DCP
    INDEX 01 57:01:14
  TRACK 14 AUDIO
    TITLE "Sell My Monkey"
    PERFORMER "B.B. King"
    FLAGS DCP
    INDEX 01 61:17:01
  TRACK 15 AUDIO
    TITLE "Darlin' You Know I Love You"
    PERFORMER "B.B. King"
    FLAGS DCP
    INDEX 01 64:23:13
  TRACK 16 AUDIO
    TITLE "Make Love To Me"
    PERFORMER "B.B. King"
    FLAGS DCP
    INDEX 01 69:11:71

CD 08 - When Love Comes To Town 1985-1993 | 01:18:43

01.Into The Night (04:13)
02.Six Silver Strings (04:22)
03.When Love Comes To Town (featuring U2) (04:18)
04.Standing On The Edge Of Love (05:22)
05.Lay Another Log On The Fire (04:04)
06.Take Off Your Shoes (05:35)
07.Nobody Love Me But My Mother (Live) (08:10)
08.Right Place, Wrong Time (04:02)
09.All Over Again (Live) (07:38)
10.I'm Moving On (04:17)
11.Back In L.A. (05:03)
12.Fool Me Once (04:21)
13.There Is Always One More Time (08:27)
14.Monday Morning Blues (Blues For Mr. G) (04:18)
15.Since I Met You Baby (Live) (04:41)

лог создания рипа

Exact Audio Copy V1.0 beta 3 from 29. August 2011
EAC extraction logfile from 21. November 2012, 19:37
B.B. King / Ladies & Gentlemen...Mr. B.B. King CD08: When Love Comes To Town (1985-1993)
Used drive  : PLEXTOR BD-R  PX-B950SA   Adapter: 6  ID: 0
Read mode               : Secure
Utilize accurate stream : Yes
Defeat audio cache      : Yes
Make use of C2 pointers : No
Read offset correction                      : 6
Overread into Lead-In and Lead-Out          : No
Fill up missing offset samples with silence : Yes
Delete leading and trailing silent blocks   : No
Null samples used in CRC calculations       : Yes
Used interface                              : Native Win32 interface for Win NT & 2000
Used output format : Internal WAV Routines
Sample format      : 44.100 Hz; 16 Bit; Stereo
TOC of the extracted CD
     Track |   Start  |  Length  | Start sector | End sector
    ---------------------------------------------------------
        1  |  0:00.00 |  4:12.43 |         0    |    18942
        2  |  4:12.43 |  4:21.59 |     18943    |    38576
        3  |  8:34.27 |  4:17.32 |     38577    |    57883
        4  | 12:51.59 |  5:21.05 |     57884    |    81963
        5  | 18:12.64 |  4:03.09 |     81964    |   100197
        6  | 22:15.73 |  5:34.24 |    100198    |   125271
        7  | 27:50.22 |  8:09.14 |    125272    |   161960
        8  | 35:59.36 |  4:01.58 |    161961    |   180093
        9  | 40:01.19 |  7:37.26 |    180094    |   214394
       10  | 47:38.45 |  4:16.54 |    214395    |   233648
       11  | 51:55.24 |  5:02.23 |    233649    |   256321
       12  | 56:57.47 |  4:20.27 |    256322    |   275848
       13  | 61:17.74 |  8:26.33 |    275849    |   313831
       14  | 69:44.32 |  4:17.30 |    313832    |   333136
       15  | 74:01.62 |  4:40.30 |    333137    |   354166
Range status and errors
Selected range
     Filename C:\Users\Meijin\Desktop\Lossless Galaxy Rip by ALLexxess\BB King\2012 Ladies & Gentlemen...Mr. B.B. King (10CD Box Set Universal Music)\CD08 When Love Comes To Town 1984-1992\Ladies & Gentlemen...Mr. B.B. King CD08.wav
     Peak level 100.0 %
     Extraction speed 8.8 X
     Range quality 100.0 %
     Test CRC 9A682234
     Copy CRC 9A682234
     Copy OK
No errors occurred
AccurateRip summary
Track  1  not present in database
Track  2  not present in database
Track  3  not present in database
Track  4  not present in database
Track  5  not present in database
Track  6  not present in database
Track  7  not present in database
Track  8  not present in database
Track  9  not present in database
Track 10  not present in database
Track 11  not present in database
Track 12  not present in database
Track 13  not present in database
Track 14  not present in database
Track 15  not present in database
None of the tracks are present in the AccurateRip database
End of status report

содержание индексной карты *cue

REM GENRE "Blues / Jazz / Soul"
REM DATE 2012
REM DISCID D112720F
REM COMMENT "ExactAudioCopy v1.0b3"
PERFORMER "B.B. King"
TITLE "Ladies & Gentlemen...Mr. B.B. King CD08: When Love Comes To Town (1985-1993)"
FILE "Ladies & Gentlemen...Mr. B.B. King CD08.flac" WAVE
  TRACK 01 AUDIO
    TITLE "Into The Night"
    PERFORMER "B.B. King"
    FLAGS DCP
    INDEX 01 00:00:00
  TRACK 02 AUDIO
    TITLE "Six Silver Strings"
    PERFORMER "B.B. King"
    FLAGS DCP
    INDEX 01 04:12:43
  TRACK 03 AUDIO
    TITLE "When Love Comes To Town (featuring U2)"
    PERFORMER "B.B. King"
    FLAGS DCP
    INDEX 01 08:34:27
  TRACK 04 AUDIO
    TITLE "Standing On The Edge Of Love"
    PERFORMER "B.B. King"
    FLAGS DCP
    INDEX 01 12:51:59
  TRACK 05 AUDIO
    TITLE "Lay Another Log On The Fire"
    PERFORMER "B.B. King"
    FLAGS DCP
    INDEX 01 18:12:64
  TRACK 06 AUDIO
    TITLE "Take Off Your Shoes"
    PERFORMER "B.B. King"
    FLAGS DCP
    INDEX 01 22:15:73
  TRACK 07 AUDIO
    TITLE "Nobody Love Me But My Mother (Live)"
    PERFORMER "B.B. King"
    FLAGS DCP
    INDEX 01 27:50:22
  TRACK 08 AUDIO
    TITLE "Right Place, Wrong Time"
    PERFORMER "B.B. King"
    FLAGS DCP
    INDEX 01 35:59:36
  TRACK 09 AUDIO
    TITLE "All Over Again (Live)"
    PERFORMER "B.B. King"
    FLAGS DCP
    INDEX 01 40:01:19
  TRACK 10 AUDIO
    TITLE "I'm Moving On"
    PERFORMER "B.B. King"
    FLAGS DCP
    INDEX 01 47:38:45
  TRACK 11 AUDIO
    TITLE "Back In L.A."
    PERFORMER "B.B. King"
    FLAGS DCP
    INDEX 01 51:55:24
  TRACK 12 AUDIO
    TITLE "Fool Me Once"
    PERFORMER "B.B. King"
    FLAGS DCP
    INDEX 01 56:57:47
  TRACK 13 AUDIO
    TITLE "There Is Always One More Time"
    PERFORMER "B.B. King"
    FLAGS DCP
    INDEX 01 61:17:74
  TRACK 14 AUDIO
    TITLE "Monday Morning Blues (Blues For Mr. G)"
    PERFORMER "B.B. King"
    FLAGS DCP
    INDEX 01 69:44:32
  TRACK 15 AUDIO
    TITLE "Since I Met You Baby (Live)"
    PERFORMER "B.B. King"
    FLAGS DCP
    INDEX 01 74:01:62

CD 09 - Blues Man 1993-1999 | 01:16:44

01.Playin' With My Friends (05:20)
02.There's Something On Your Mind (06:01)
03.I Gotta Move Out Of This Neighbourhood / Nobody Loves Me But My Mother (08:59)
04.You Don't Know Me (03:56)
05.Stormy Monday Blues (05:19)
06.Rock Me Baby (Live) (06:22)
07.Confessin' The Blues (04:32)
08.Paying The Cost To Be The Boss (03:35)
09.Blues Man (05:20)
10.Bad Case Of Love (05:29)
11.Blues Boys Tune (03:29)
12.I'll Survive (04:53)
13.Ain't Nobody Here But Us Chickens (02:53)
14.I'm Gonna Move To The Outskirts Of Town (04:52)
15.Ain't That Just Like A Woman (03:33)
16.Caldonia (02:19)

лог создания рипа

Exact Audio Copy V1.0 beta 3 from 29. August 2011
EAC extraction logfile from 21. November 2012, 18:52
B.B. King / Ladies & Gentlemen...Mr. B.B. King CD09: Blues Man (1993-1999)
Used drive  : PLEXTOR BD-R  PX-B950SA   Adapter: 6  ID: 0
Read mode               : Secure
Utilize accurate stream : Yes
Defeat audio cache      : Yes
Make use of C2 pointers : No
Read offset correction                      : 6
Overread into Lead-In and Lead-Out          : No
Fill up missing offset samples with silence : Yes
Delete leading and trailing silent blocks   : No
Null samples used in CRC calculations       : Yes
Used interface                              : Native Win32 interface for Win NT & 2000
Used output format : Internal WAV Routines
Sample format      : 44.100 Hz; 16 Bit; Stereo
TOC of the extracted CD
     Track |   Start  |  Length  | Start sector | End sector
    ---------------------------------------------------------
        1  |  0:00.00 |  5:19.25 |         0    |    23949
        2  |  5:19.25 |  6:00.63 |     23950    |    51012
        3  | 11:20.13 |  8:58.25 |     51013    |    91387
        4  | 20:18.38 |  3:55.06 |     91388    |   109018
        5  | 24:13.44 |  5:18.20 |    109019    |   132888
        6  | 29:31.64 |  6:21.60 |    132889    |   161523
        7  | 35:53.49 |  4:31.70 |    161524    |   181918
        8  | 40:25.44 |  3:34.40 |    181919    |   198008
        9  | 44:00.09 |  5:19.13 |    198009    |   221946
       10  | 49:19.22 |  5:28.16 |    221947    |   246562
       11  | 54:47.38 |  3:28.33 |    246563    |   262195
       12  | 58:15.71 |  4:52.07 |    262196    |   284102
       13  | 63:08.03 |  2:52.62 |    284103    |   297064
       14  | 66:00.65 |  4:51.55 |    297065    |   318944
       15  | 70:52.45 |  3:32.42 |    318945    |   334886
       16  | 74:25.12 |  2:18.12 |    334887    |   345248
Range status and errors
Selected range
     Filename C:\Users\Meijin\Desktop\Lossless Galaxy Rip by ALLexxess\BB King\2012 Ladies & Gentlemen...Mr. B.B. King (10CD Box Set Universal Music)\CD09 Blues Man 1993-1999\Ladies & Gentlemen...Mr. B.B. King CD09.wav
     Peak level 100.0 %
     Extraction speed 8.7 X
     Range quality 100.0 %
     Test CRC C2B1689E
     Copy CRC C2B1689E
     Copy OK
No errors occurred
AccurateRip summary
Track  1  not present in database
Track  2  not present in database
Track  3  not present in database
Track  4  not present in database
Track  5  not present in database
Track  6  not present in database
Track  7  not present in database
Track  8  not present in database
Track  9  not present in database
Track 10  not present in database
Track 11  not present in database
Track 12  not present in database
Track 13  not present in database
Track 14  not present in database
Track 15  not present in database
Track 16  not present in database
None of the tracks are present in the AccurateRip database
End of status report

содержание индексной карты *cue

REM GENRE "Blues / Jazz / Soul"
REM DATE 2012
REM DISCID F211FB10
REM COMMENT "ExactAudioCopy v1.0b3"
PERFORMER "B.B. King"
TITLE "Ladies & Gentlemen...Mr. B.B. King CD09: Blues Man (1993-1999)"
FILE "Ladies & Gentlemen...Mr. B.B. King CD09.flac" WAVE
  TRACK 01 AUDIO
    TITLE "Playin' With My Friends"
    PERFORMER "B.B. King"
    FLAGS DCP
    INDEX 01 00:00:00
  TRACK 02 AUDIO
    TITLE "There's Something On Your Mind"
    PERFORMER "B.B. King"
    FLAGS DCP
    INDEX 01 05:19:25
  TRACK 03 AUDIO
    TITLE "I Gotta Move Out Of This Neighbourhood / Nobody Loves Me But My Mother"
    PERFORMER "B.B. King"
    FLAGS DCP
    INDEX 01 11:20:13
  TRACK 04 AUDIO
    TITLE "You Don't Know Me"
    PERFORMER "B.B. King"
    FLAGS DCP
    INDEX 01 20:18:38
  TRACK 05 AUDIO
    TITLE "Stormy Monday Blues"
    PERFORMER "B.B. King"
    FLAGS DCP
    INDEX 01 24:13:44
  TRACK 06 AUDIO
    TITLE "Rock Me Baby (Live)"
    PERFORMER "B.B. King"
    FLAGS DCP
    INDEX 01 29:31:64
  TRACK 07 AUDIO
    TITLE "Confessin' The Blues"
    PERFORMER "B.B. King"
    FLAGS DCP
    INDEX 01 35:53:49
  TRACK 08 AUDIO
    TITLE "Paying The Cost To Be The Boss"
    PERFORMER "B.B. King"
    FLAGS DCP
    INDEX 01 40:25:44
  TRACK 09 AUDIO
    TITLE "Blues Man"
    PERFORMER "B.B. King"
    FLAGS DCP
    INDEX 01 44:00:09
  TRACK 10 AUDIO
    TITLE "Bad Case Of Love"
    PERFORMER "B.B. King"
    FLAGS DCP
    INDEX 01 49:19:22
  TRACK 11 AUDIO
    TITLE "Blues Boys Tune"
    PERFORMER "B.B. King"
    FLAGS DCP
    INDEX 01 54:47:38
  TRACK 12 AUDIO
    TITLE "I'll Survive"
    PERFORMER "B.B. King"
    FLAGS DCP
    INDEX 01 58:15:71
  TRACK 13 AUDIO
    TITLE "Ain't Nobody Here But Us Chickens"
    PERFORMER "B.B. King"
    FLAGS DCP
    INDEX 01 63:08:03
  TRACK 14 AUDIO
    TITLE "I'm Gonna Move To The Outskirts Of Town"
    PERFORMER "B.B. King"
    FLAGS DCP
    INDEX 01 66:00:65
  TRACK 15 AUDIO
    TITLE "Ain't That Just Like A Woman"
    PERFORMER "B.B. King"
    FLAGS DCP
    INDEX 01 70:52:45
  TRACK 16 AUDIO
    TITLE "Caldonia"
    PERFORMER "B.B. King"
    FLAGS DCP
    INDEX 01 74:25:12

CD 10 - Key To The Highway 2000-2008 | 01:15:47

01.Ten Long Years (with Eric Clapton) (04:41)
02.Key To The Highway (with Eric Clapton) (03:41)
03.I Got To Leave This Woman (03:37)
04.Monday Woman (03:36)
05.Don't Go No Farther (04:09)
06.You're On Top (03:12)
07.Back Door Santa (03:27)
08.Exactly Like You (03:22)
09.Sinner's Prayer (with Ray Charles) (04:26)
10.Early In The Morning (with Van Morrison) (04:50)
11.Rock This House (with Elton John) (03:09)
12.You Have A Way (03:54)
13.Everybody Loves You (03:06)
14.Key To The Highway (Live) (04:27)
15.Midnight Blues (03:45)
16.Get These Blues Off Me (04:30)
17.See That My Grave Is Kept Clean (04:49)
18.Waiting For Your Call (05:58)
19.Haunted House (03:17)

лог создания рипа

Exact Audio Copy V1.0 beta 3 from 29. August 2011
EAC extraction logfile from 21. November 2012, 18:03
B.B. King / Ladies & Gentlemen...Mr. B.B. King CD10: Key To The Highway (2000-2008)
Used drive  : PLEXTOR BD-R  PX-B950SA   Adapter: 6  ID: 0
Read mode               : Secure
Utilize accurate stream : Yes
Defeat audio cache      : Yes
Make use of C2 pointers : No
Read offset correction                      : 6
Overread into Lead-In and Lead-Out          : No
Fill up missing offset samples with silence : Yes
Delete leading and trailing silent blocks   : No
Null samples used in CRC calculations       : Yes
Used interface                              : Native Win32 interface for Win NT & 2000
Used output format : Internal WAV Routines
Sample format      : 44.100 Hz; 16 Bit; Stereo
TOC of the extracted CD
     Track |   Start  |  Length  | Start sector | End sector
    ---------------------------------------------------------
        1  |  0:00.00 |  4:40.19 |         0    |    21018
        2  |  4:40.19 |  3:40.65 |     21019    |    37583
        3  |  8:21.09 |  3:36.19 |     37584    |    53802
        4  | 11:57.28 |  3:35.36 |     53803    |    69963
        5  | 15:32.64 |  4:08.05 |     69964    |    88568
        6  | 19:40.69 |  3:11.64 |     88569    |   102957
        7  | 22:52.58 |  3:26.13 |    102958    |   118420
        8  | 26:18.71 |  3:21.64 |    118421    |   133559
        9  | 29:40.60 |  4:25.22 |    133560    |   153456
       10  | 34:06.07 |  4:49.67 |    153457    |   175198
       11  | 38:55.74 |  3:08.06 |    175199    |   189304
       12  | 42:04.05 |  3:53.06 |    189305    |   206785
       13  | 45:57.11 |  3:05.74 |    206786    |   220734
       14  | 49:03.10 |  4:26.09 |    220735    |   240693
       15  | 53:29.19 |  3:44.58 |    240694    |   257551
       16  | 57:14.02 |  4:29.68 |    257552    |   277794
       17  | 61:43.70 |  4:48.33 |    277795    |   299427
       18  | 66:32.28 |  5:57.63 |    299428    |   326265
       19  | 72:30.16 |  3:16.49 |    326266    |   341014
Range status and errors
Selected range
     Filename C:\Users\Meijin\Desktop\Lossless Galaxy Rip by ALLexxess\BB King\2012 Ladies & Gentleman...Mr. B.B. King (10CD Box Set Universal Music)\CD10 Key To The Highway 2000-2008\Ladies & Gentlemen...Mr. B.B. King CD10.wav
     Peak level 100.0 %
     Extraction speed 8.7 X
     Range quality 100.0 %
     Test CRC D6832B9E
     Copy CRC D6832B9E
     Copy OK
No errors occurred
AccurateRip summary
Track  1  not present in database
Track  2  not present in database
Track  3  not present in database
Track  4  not present in database
Track  5  not present in database
Track  6  not present in database
Track  7  not present in database
Track  8  not present in database
Track  9  not present in database
Track 10  not present in database
Track 11  not present in database
Track 12  not present in database
Track 13  not present in database
Track 14  not present in database
Track 15  not present in database
Track 16  not present in database
Track 17  not present in database
Track 18  not present in database
Track 19  not present in database
None of the tracks are present in the AccurateRip database
End of status report

содержание индексной карты *cue

REM GENRE "Blues / Jazz / Soul"
REM DATE 2012
REM DISCID 1711C213
REM COMMENT "ExactAudioCopy v1.0b3"
PERFORMER "B.B. King"
TITLE "Ladies & Gentlemen...Mr. B.B. King CD10: Key To The Highway (2000-2008)"
FILE "Ladies & Gentlemen...Mr. B.B. King CD10.flac" WAVE
  TRACK 01 AUDIO
    TITLE "Ten Long Years (with Eric Clapton)"
    PERFORMER "B.B. King"
    FLAGS DCP
    INDEX 01 00:00:00
  TRACK 02 AUDIO
    TITLE "Key To The Highway (with Eric Clapton)"
    PERFORMER "B.B. King"
    FLAGS DCP
    INDEX 01 04:40:19
  TRACK 03 AUDIO
    TITLE "I Got To Leave This Woman"
    PERFORMER "B.B. King"
    FLAGS DCP
    INDEX 01 08:21:09
  TRACK 04 AUDIO
    TITLE "Monday Woman"
    PERFORMER "B.B. King"
    FLAGS DCP
    INDEX 01 11:57:28
  TRACK 05 AUDIO
    TITLE "Don't Go No Farther"
    PERFORMER "B.B. King"
    FLAGS DCP
    INDEX 01 15:32:64
  TRACK 06 AUDIO
    TITLE "You're On Top"
    PERFORMER "B.B. King"
    FLAGS DCP
    INDEX 01 19:40:69
  TRACK 07 AUDIO
    TITLE "Back Door Santa"
    PERFORMER "B.B. King"
    FLAGS DCP
    INDEX 01 22:52:58
  TRACK 08 AUDIO
    TITLE "Exactly Like You"
    PERFORMER "B.B. King"
    FLAGS DCP
    INDEX 01 26:18:71
  TRACK 09 AUDIO
    TITLE "Sinner's Prayer (with Ray Charles)"
    PERFORMER "B.B. King"
    FLAGS DCP
    INDEX 01 29:40:60
  TRACK 10 AUDIO
    TITLE "Early In The Morning (with Van Morrison)"
    PERFORMER "B.B. King"
    FLAGS DCP
    INDEX 01 34:06:07
  TRACK 11 AUDIO
    TITLE "Rock This House (with Elton John)"
    PERFORMER "B.B. King"
    FLAGS DCP
    INDEX 01 38:55:74
  TRACK 12 AUDIO
    TITLE "You Have A Way"
    PERFORMER "B.B. King"
    FLAGS DCP
    INDEX 01 42:04:05
  TRACK 13 AUDIO
    TITLE "Everybody Loves You"
    PERFORMER "B.B. King"
    FLAGS DCP
    INDEX 01 45:57:11
  TRACK 14 AUDIO
    TITLE "Key To The Highway (Live)"
    PERFORMER "B.B. King"
    FLAGS DCP
    INDEX 01 49:03:10
  TRACK 15 AUDIO
    TITLE "Midnight Blues"
    PERFORMER "B.B. King"
    FLAGS DCP
    INDEX 01 53:29:19
  TRACK 16 AUDIO
    TITLE "Get These Blues Off Me"
    PERFORMER "B.B. King"
    FLAGS DCP
    INDEX 01 57:14:02
  TRACK 17 AUDIO
    TITLE "See That My Grave Is Kept Clean"
    PERFORMER "B.B. King"
    FLAGS DCP
    INDEX 01 61:43:70
  TRACK 18 AUDIO
    TITLE "Waiting For Your Call"
    PERFORMER "B.B. King"
    FLAGS DCP
    INDEX 01 66:32:28
  TRACK 19 AUDIO
    TITLE "Haunted House"
    PERFORMER "B.B. King"
    FLAGS DCP
    INDEX 01 72:30:16

Об исполнителе (группе):

Легенда блюза B.B. King ушел из жизни в возрасте 89 лет в Лас-Вегасе. Музыкант, чья игра и проникновенный вокал вдохновили несколько поколений музыкантов и слушателей, сделал для блюза как жанра множество открытий и стал его знаковой фигурой. В Кинге многие отмечали его удивительную любовь к людям. Только ему могло прийти в голову предложить создать содружество музыкантов, которые не используют в своем творчестве бранные слова по отношению к представительницам прекрасного пола. Только он мог вытащить на сцену Montreux Jazz Festival вконец оробевшего молодого гитариста и предложить "прямо сейчас поджемовать".
Об смерти Кинга сообщил официальный представитель музыканта Брент Брайсон (Brent Bryson). По его словам, музыкант, страдавший от диабета и высокого давления, скончался во сне в собственном доме в Вегасе.
--Не забываем говорить
[Профиль] [ЛС]
Кто просматривает тему:

Показать сообщения:    

Текущее время: Сегодня 08:13

Часовой пояс: GMT



Вы не можете начинать темы
Вы не можете отвечать на сообщения
Вы не можете редактировать свои сообщения
Вы не можете удалять свои сообщения
Вы не можете голосовать в опросах
Вы не можете прикреплять файлы к сообщениям
Вы не можете скачивать файлы