BBC: Viasat History. Бразды правления. Балет на лошади / Lucy Worsley's Reins of Power: The Art of Horse Dancing (Nick Gillam-Smith) [2015 г., Документальный, история, HDTV 720p]

 
Author Message

skorpionN ®

Gender:

Longevity: 5 years 3 months

Posts: 944



: 4 ()

Top Releaser 2 (1) Mega Seeder 2 (1) Mega Seeder 3 (1)
Торрент-статистика

Post 08-Jun-2017 20:33

[Quote]

BBC: Viasat History. Бразды правления. Балет на лошади / Lucy Worsley's Reins of Power: The Art of Horse Dancing
Год выпуска: 2015
Страна: Великобритания, Million Media Linited for BBC
Жанр: Документальный, история
Продолжительность: 00:47:38
Перевод: Профессиональный (одноголосый), переведено и озвучено на студии SDI Media, перевод Анны Заславской текст читает Ольга Зубкова
Режиссер: Nick Gillam-Smith
В ролях: ведущая - Люси Уорсли / Lucy Worsley
Описание: Доктор Люси Уорсли разбирается в истории выездки, от первых шагов при дворах 17 века до современных школ верховой езды.
Теперь, если это звучит безумно но лошадиный балет или манеж когда-то были самыми благородными занятиями, которые практиковали все аристократы от придворных до короля в первой половине 17-го века дабы лишний раз продемонстрировать свое величие. Люси хочет узнать, почему это своеобразное мастерство было когда-то таким важным занятием. Она изучает это утраченное искусства у современных мастеров, побывает на представлениях за рубежом, совершит экскурс в военное прошлое и узнает больше об удивительном настоящем. Она пытается понять почему лошади играли такую важную роль в жизни королей и королев минувших веков. Почему понятия "Царство" и "Конь" неразделимы и по сей день?
Качество: HDTV
Формат: MPEG - TS
Видео кодек: H.264
Аудио кодек: MPEG Audio
Видео: 1280x720 50.00fps ~8440 Kbps
Аудио 1: (Rus) MP2 2ch, 48kHz, 128 kbps
Аудио 2: (En) MP2 2ch, 48kHz, 128 kbps

Скриншоты


MediaInfo:

Format : MPEG-TS
File size : 3.04 GiB
Duration : 47 min 37 s
Overall bit rate mode : Variable
Overall bit rate : 9 151 kb/s
Video
ID : 4113 (0x1011)
Menu ID : 1 (0x1)
Format : AVC
Format/Info : Advanced Video Codec
Format profile : High@L4
Format settings, CABAC : Yes
Format settings, ReFrames : 5 frames
Codec ID : 27
Duration : 47 min 37 s
Bit rate mode : Variable
Bit rate : 8 440 kb/s
Maximum bit rate : 40.0 Mb/s
Width : 1 280 pixels
Height : 720 pixels
Display aspect ratio : 16:9
Frame rate : 50.000 FPS
Standard : Component
Color space : YUV
Chroma subsampling : 4:2:0
Bit depth : 8 bits
Scan type : Progressive
Bits/(Pixel*Frame) : 0.183
Stream size : 2.81 GiB (92%)
Color range : Limited
Color primaries : BT.709
Transfer characteristics : BT.709
Matrix coefficients : BT.709
Audio #1
ID : 4352 (0x1100)
Menu ID : 1 (0x1)
Format : MPEG Audio
Format version : Version 1
Format profile : Layer 2
Codec ID : 3
Duration : 47 min 37 s
Bit rate mode : Constant
Bit rate : 128 kb/s
Channel(s) : 2 channels
Sampling rate : 48.0 kHz
Compression mode : Lossy
Delay relative to video : -140 ms
Stream size : 43.6 MiB (1%)
Language : Russian
Audio #2
ID : 4353 (0x1101)
Menu ID : 1 (0x1)
Format : MPEG Audio
Format version : Version 1
Format profile : Layer 2
Codec ID : 3
Duration : 47 min 37 s
Bit rate mode : Constant
Bit rate : 128 kb/s
Channel(s) : 2 channels
Sampling rate : 48.0 kHz
Compression mode : Lossy
Delay relative to video : -140 ms
Stream size : 43.6 MiB (1%)
Language : English
[Profile] [PM]
Кто просматривает тему:

Display posts from previous:    

The time now is: Today 11:49

All times are GMT



You cannot post new topics in this forum
You cannot reply to topics in this forum
You cannot edit your posts in this forum
You cannot delete your posts in this forum
You cannot vote in polls in this forum
You cannot attach files in this forum
You cannot download files in this forum