BBC: Horizon. Тёмная сторона Всемирной Паутины / Inside the Dark Web (Майкл Рэдфорд / Mike Radford) [2014 г., Документальный, HDRip-AVC 720p]

 
Автор Сообщение

skorpionN ®

Пол:

Стаж: 3 года 7 месяцев

Сообщений: 944



Награды: 4 (Подробнее)

Top Releaser 2 (Количество: 1) Mega Seeder 1 (Количество: 1) Mega Seeder 3 (Количество: 1)
Торрент-статистика

Создавать темы 04-Апр-2017 17:08

[Цитировать]

BBC: Horizon. Тёмная сторона Всемирной Паутины / Inside the Dark Web
Год выпуска: 2014
Страна: Великобритания, BBC Science Production London
Жанр: Документальный, научно-популярный, интернет
Продолжительность: 00:50:57
Перевод: Профессиональный (двухголосый), Видеофильм ТВ
Режиссер: Майкл Рэдфорд / Mike Radford
В ролях: Джулиан Ассанж, Джейкоб Эпплбаум, Дэвид Чаум, Евгений Касперский, Джулия Анджвин, Аманда Дрю, Тим Бернерс-Ли, Стив Крокер, Брюс Шнайер
Описание: Должна ли сеть быть свободной? Или ее нужно контролировать? Многие обеспокоены тем, что правительство и разнообразные корпорации могут следить за каждым нашим шагом. Есть люди, которые раз за разом отвечают на это, изобретая все новые системы защиты своей информации. Однозначны ли эти технологии? Ведь в интернете можно купить все - от оружия до личных данных кредитных карт. Авторы фильма покажут нам другую сторону Всемирной Паутины.
Качество: HDRip-AVC 720p
Формат: MKV
Видео кодек: H.264
Аудио кодек: AC3
Видео: 1280x720 25.00 fps 3500 kbps
Аудио: AC3 2ch, 48kHz, 192 kbps

MediaInfo:

Format : Matroska
Format version : Version 4 / Version 2
File size : 1.31 GiB
Duration : 50 min 56 s
Overall bit rate mode : Variable
Overall bit rate : 3 691 kb/s
Encoded date : UTC 2017-04-04 16:58:07
Writing application : mkvmerge v7.3.0 ('Nouages') 64bit built on Oct 22 2014 18:53:34
Writing library : libebml v1.3.0 + libmatroska v1.4.1
Video
ID : 1
Format : AVC
Format/Info : Advanced Video Codec
Format profile : High@L4.1
Format settings, CABAC : Yes
Format settings, ReFrames : 3 frames
Codec ID : V_MPEG4/ISO/AVC
Duration : 50 min 56 s
Bit rate mode : Variable
Bit rate : 3 500 kb/s
Maximum bit rate : 8 000 kb/s
Width : 1 280 pixels
Height : 720 pixels
Display aspect ratio : 16:9
Frame rate mode : Constant
Frame rate : 25.000 FPS
Standard : NTSC
Color space : YUV
Chroma subsampling : 4:2:0
Bit depth : 8 bits
Scan type : Progressive
Bits/(Pixel*Frame) : 0.152
Stream size : 1.24 GiB (95%)
Writing library : x264 core 114
Encoding settings : cabac=1 / ref=3 / deblock=1:0:0 / analyse=0x3:0x113 / me=hex / subme=7 / psy=1 / psy_rd=1.00:0.00 / mixed_ref=1 / me_range=16 / chroma_me=1 / trellis=1 / 8x8dct=1 / cqm=2 / deadzone=21,11 / fast_pskip=1 / chroma_qp_offset=-4 / threads=6 / sliced_threads=0 / slices=1 / nr=0 / decimate=1 / interlaced=0 / constrained_intra=0 / bframes=3 / b_pyramid=0 / b_adapt=1 / b_bias=0 / direct=1 / weightb=1 / open_gop=0 / weightp=2 / keyint=250 / keyint_min=25 / scenecut=40 / intra_refresh=0 / rc_lookahead=40 / rc=2pass / mbtree=1 / bitrate=3500 / ratetol=1.0 / qcomp=0.60 / qpmin=5 / qpmax=69 / qpstep=4 / cplxblur=20.0 / qblur=0.5 / vbv_maxrate=8000 / vbv_bufsize=7995 / nal_hrd=vbr / ip_ratio=1.40 / aq=1:1.00
Default : Yes
Forced : No
Color range : Limited
Color primaries : BT.709
Transfer characteristics : BT.709
Matrix coefficients : BT.709
Audio
ID : 2
Format : AC-3
Format/Info : Audio Coding 3
Format settings, Endianness : Big
Codec ID : A_AC3
Duration : 50 min 56 s
Bit rate mode : Constant
Bit rate : 192 kb/s
Channel(s) : 2 channels
Channel positions : Front: L R
Sampling rate : 48.0 kHz
Frame rate : 31.250 FPS (1536 spf)
Bit depth : 16 bits
Compression mode : Lossy
Stream size : 70.0 MiB (5%)
Service kind : Complete Main
Default : Yes
Forced : No
[Профиль] [ЛС]
Кто просматривает тему:

Форум Тема Автор Размер
BBC BBC: Horizon. Антарктическая полярная станция / Ice Station Antarctica [сезон 52 серия 8] (Simon Winchcombe) [2016 г., Документальный, BDRip 720p] skorpionN 1.63 GB
BBC BBC: Horizon. В поисках бессмертия / Horizon. The Immortalist (Tristan Quinn) [2016 г., Документальный, научно-познавательный, HDTVRip-AVC 720p] skorpionN 1.52 GB
BBC BBC: Horizon. Закат Солнечной системы / The End of The Solar System [сезон 52 эпизод 5] (George Harris) [2016 г., Документальный, научно-популярный, HDTVRip-AVC 720p] skorpionN 1.93 GB
BBC BBC: Horizon. Исчезнувшие племена человечества / The Lost Tribes Of Humanity [сезон 52 эпизод 16] (Giles Harrison) [2016 г., Документальный, научно-популярный, история, исследования, HDTVRip-AVC 720p] skorpionN 1.57 GB
BBC BBC: Horizon. Как устроен ЦЕРН. Спецвыпуск / Inside CERN: A Horizon Special [сезон 52 эпизод 13] (Serena Davies) [2016 г., Документальный, научно-популярный, HDTVRip-AVC 720p] skorpionN 1.94 GB
BBC BBC: Horizon. Лекарство от Альцгеймера / Curing Alzheimer's (Charles Colville) [2016 г., Документальный, научно-популярный, медицина, HDTVRip 720p] skorpionN 1.51 GB
BBC BBC: Horizon. Мой домашний динозавр / My Pet Dinosaur [сезон 43 эпизод 8] (Mark Everest) [2007 г., Документальный, археология, история, исследования, DVB] skorpionN 1.01 GB
BBC BBC: Horizon. Океаны Солнечной системы / Oceans of the Solar System (David Stewart) [2015 г., Документальный, научно-популярный, HDTVRip 720p] skorpionN 1.5 GB
Показать сообщения:    

Текущее время: Сегодня 07:05

Часовой пояс: GMT



Вы не можете начинать темы
Вы не можете отвечать на сообщения
Вы не можете редактировать свои сообщения
Вы не можете удалять свои сообщения
Вы не можете голосовать в опросах
Вы не можете прикреплять файлы к сообщениям
Вы не можете скачивать файлы