BBC: Horizon: Тайны тёмной энергии / The Mysteries of Dark Energy (Mark Radice) [2015 г., Документальный, научно-познавательный, астрономия, SATRip]

 
Автор Сообщение

skorpionN ®

Пол:

Стаж: 1 год 8 месяцев

Сообщений: 580



Награды: 4 (Подробнее)

Mega Seeder 1 (Количество: 1) Mega Seeder 2 (Количество: 1) Mega Seeder 3 (Количество: 1)
Торрент-статистика

Создавать темы 19-Мар-2016 08:51

[Цитировать]

BBC: Horizon: Тайны тёмной энергии / The Mysteries of Dark Energy
Год выпуска: 2015
Страна: Великобритания, BBC Science Production London
Жанр: Документальный, научно-познавательный, астрономия
Продолжительность: 00:48:50
Перевод: Профессиональный (двухголосый), Видеофильм ТВ
Режиссер: Mark Radice
Описание: Общая теория относительности Эйнштейна до сих пор является одним из столпов современной физики. Но спустя 100 лет после появления этой теории ученые продвинулись дальше - обнаружили и рассчитали новый вид энергии во Вселенной. Так называемую Темную Энергию. Что это такое? Авторы фильма постараются разобраться...
Качество: SATRip
Формат: AVI
Видео кодек: XviD
Аудио кодек: AC3
Видео: 720x400 25fps ~1800 Kbps
Аудио: AC3 2ch, 48kHz, 192 kbps

Скриншоты


MediaInfo:

Format : AVI
Format/Info : Audio Video Interleave
File size : 696 MiB
Duration : 48mn 49s
Overall bit rate : 1 991 Kbps
Writing application : TMPGEnc Video Mastering Works 5 Version. 5.0.6.38
Writing library : TMPGEnc Video Mastering Works 5 Version. 5.0.6.38
Video
ID : 0
Format : MPEG-4 Visual
Format profile : Advanced Simple@L5
Format settings, BVOP : 2
Format settings, QPel : No
Format settings, GMC : No warppoints
Format settings, Matrix : Default (H.263)
Muxing mode : Packed bitstream
Codec ID : XVID
Codec ID/Hint : XviD
Duration : 48mn 49s
Bit rate : 1 792 Kbps
Width : 720 pixels
Height : 400 pixels
Display aspect ratio : 16:9
Frame rate : 25.000 fps
Color space : YUV
Chroma subsampling : 4:2:0
Bit depth : 8 bits
Scan type : Progressive
Compression mode : Lossy
Bits/(Pixel*Frame) : 0.249
Stream size : 626 MiB (90%)
Writing library : XviD 73
Audio
ID : 1
Format : AC-3
Format/Info : Audio Coding 3
Mode extension : CM (complete main)
Format settings, Endianness : Big
Codec ID : 2000
Duration : 48mn 49s
Bit rate mode : Constant
Bit rate : 192 Kbps
Channel(s) : 2 channels
Channel positions : Front: L R
Sampling rate : 48.0 KHz
Bit depth : 16 bits
Compression mode : Lossy
Stream size : 67.1 MiB (10%)
Alignment : Aligned on interleaves
Interleave, duration : 240 ms (6.00 video frames)
Interleave, preload duration : 224 ms
BBC: Horizon: Тайны тёмной энергии / The Mysteries of Dark Energy SATRip]
BBC: Horizon: Тайны тёмной энергии / The Mysteries of Dark Energy HDTVRip 720p]


Последний раз редактировалось: skorpionN (2016-04-01 16:03), всего редактировалось 4 раз(а)
[Профиль] [ЛС]

KiruhaDelMar

Стаж: 1 год 8 месяцев

Сообщений: 243



Награды: Нет

Торрент-статистика

Создавать темы 19-Мар-2016 09:06 (спустя 15 минут)

[Цитировать]

ты забебал, вот хренушки еще чего покажу ao
[Профиль] [ЛС]
Кто просматривает тему:

Форум Тема Автор Размер
BBC BBC: Horizon. В поисках бессмертия / Horizon. The Immortalist (Tristan Quinn) [2016 г., Документальный, научно-познавательный, HDTVRip-AVC 720p] skorpionN 1.52 GB
BBC BBC: Horizon. Океаны Солнечной системы / Oceans of the Solar System (David Stewart) [2015 г., Документальный, научно-популярный, HDTVRip 720p] skorpionN 1.5 GB
Документальные HD BBC: Horizon. Поглощенные черной дырой / Swallowed by a Black Hole (2013) HDTVRip sergej644 671 MB
BBC BBC: Horizon. Почему мы толстеем? / Why Are We Getting So Fat? (Milla Harrison-Hansley) [2016 г., Документальный, научно-популярный, HDTVRip 720p] skorpionN 1.52 GB
BBC BBC: Horizon. Стоит ли есть мясо? / Horizon. Should I Eat Meat? [2 серии] (Daniel Barry, Michael Lachmann) [2014 г., Документальный, научно-познавательный, HDTVRip 720p] skorpionN 2.64 GB
BBC BBC: Horizon. Таблетки, которым мы доверяем (Поглотители таблеток,Таблеткоглотатели) / Pill Poppers [сезон 46 серия 10] (Эмма Джей / Emma Jay) [2010 г., Документальный, научно-популярный, медицина,... skorpionN 1.51 GB
BBC BBC: Horizon. Танцы на грани тьмы - это конец физики? / Horizon. Dancing in the Dark - The End of Physics? (Peter Leonard) [2015 г., Документальный, научно-познавательный, SATRip] skorpionN 696 MB
BBC BBC: Horizon. Электронные сигареты: чудо или угроза? / Horizon. E-Cigarettes: Miracle or Menace? (Emma Hatherley) [2016 г., Документальный, научно-познавательный, HDTVRip-AVC 720p] skorpionN 1.81 GB
Показать сообщения:    

Текущее время: Сегодня 14:03

Часовой пояс: GMT



Вы не можете начинать темы
Вы не можете отвечать на сообщения
Вы не можете редактировать свои сообщения
Вы не можете удалять свои сообщения
Вы не можете голосовать в опросах
Вы не можете прикреплять файлы к сообщениям
Вы не можете скачивать файлы