BBC: Horizon. Таинственные сигналы из космического пространства / Strange Signals from Outer Space! (Stephen Cooter) [2017 г., Документальный, научно-популярный, SATRip]

 
Автор Сообщение

skorpionN ®

Пол:

Стаж: 2 года 9 месяцев

Сообщений: 881



Награды: 4 (Подробнее)

Mega Seeder 3 (Количество: 1) Mega Seeder 2 (Количество: 1) Mega Seeder 1 (Количество: 1)
Торрент-статистика

Создавать темы 23-Апр-2017 18:40

[Цитировать]

BBC: Horizon. Таинственные сигналы из космического пространства / Strange Signals from Outer Space!
Год выпуска: 2017
Страна: Великобритания, BBC Studios
Жанр: Документальный, научно-популярный
Продолжительность: 00:51:29
Перевод: Профессиональный (двухголосый), компания Видеофильм ТВ
Режиссер: Stephen Cooter
Описание: Веками мы смотрели в ночное небо и задавались вопросом - одиноки ли мы? Мы отправляли сообщения в глубины космоса, но никогда не получали ответа. До сих пор. Последние несколько лет мы получаем таинственные сигналы, импульсы из космоса, которые не поддаются объяснению.
Качество: SATRip
Формат: Avi
Видео кодек: XviD
Аудио кодек: AC3
Видео: 720x400 25.00 fps 1800 kbps
Аудио: AC3 2ch, 48kHz, 192 kbps

Скриншоты


MediaInfo:

Format : AVI
Format/Info : Audio Video Interleave
File size : 739 MiB
Duration : 51 min 28 s
Overall bit rate : 2 006 kb/s
Writing application : VirtualDubMod 1.5.10.3 | www.virtualdub-fr.org || (build 2550/release)
Writing library : VirtualDubMod build 2550/release
Video
ID : 0
Format : MPEG-4 Visual
Format profile : Advanced Simple@L5
Format settings, BVOP : 2
Format settings, QPel : No
Format settings, GMC : No warppoints
Format settings, Matrix : Default (H.263)
Codec ID : XVID
Codec ID/Hint : XviD
Duration : 51 min 28 s
Bit rate : 1 804 kb/s
Width : 720 pixels
Height : 400 pixels
Display aspect ratio : 16:9
Frame rate : 25.000 FPS
Color space : YUV
Chroma subsampling : 4:2:0
Bit depth : 8 bits
Scan type : Progressive
Compression mode : Lossy
Bits/(Pixel*Frame) : 0.251
Stream size : 664 MiB (90%)
Writing library : XviD 1.2.1 (UTC 2008-12-04)
Audio
ID : 1
Format : AC-3
Format/Info : Audio Coding 3
Mode extension : CM (complete main)
Format settings, Endianness : Big
Codec ID : 2000
Duration : 51 min 28 s
Bit rate mode : Constant
Bit rate : 192 kb/s
Channel(s) : 2 channels
Channel positions : Front: L R
Sampling rate : 48.0 kHz
Frame rate : 31.250 FPS (1536 spf)
Compression mode : Lossy
Stream size : 70.7 MiB (10%)
Alignment : Split accross interleaves
Interleave, duration : 40 ms (1.00 video frame)
Interleave, preload duration : 500 ms
[Профиль] [ЛС]
Кто просматривает тему:

Форум Тема Автор Размер
BBC BBC: Horizon. Антарктическая полярная станция / Ice Station Antarctica [сезон 52 серия 8] (Simon Winchcombe) [2016 г., Документальный, BDRip 720p] skorpionN 1.63 GB
BBC BBC: Horizon. В поисках бессмертия / Horizon. The Immortalist (Tristan Quinn) [2016 г., Документальный, научно-познавательный, HDTVRip-AVC 720p] skorpionN 1.52 GB
BBC BBC: Horizon. Закат Солнечной системы / The End of The Solar System [сезон 52 эпизод 5] (George Harris) [2016 г., Документальный, научно-популярный, HDTVRip-AVC 720p] skorpionN 1.93 GB
BBC BBC: Horizon. Исчезнувшие племена человечества / The Lost Tribes Of Humanity [сезон 52 эпизод 16] (Giles Harrison) [2016 г., Документальный, научно-популярный, история, исследования, HDTVRip-AVC 720p] skorpionN 1.57 GB
BBC BBC: Horizon. Как устроен ЦЕРН. Спецвыпуск / Inside CERN: A Horizon Special [сезон 52 эпизод 13] (Serena Davies) [2016 г., Документальный, научно-популярный, HDTVRip-AVC 720p] skorpionN 1.94 GB
BBC BBC: Horizon. Лекарство от Альцгеймера / Curing Alzheimer's (Charles Colville) [2016 г., Документальный, научно-популярный, медицина, HDTVRip 720p] skorpionN 1.51 GB
BBC BBC: Horizon. Мой домашний динозавр / My Pet Dinosaur [сезон 43 эпизод 8] (Mark Everest) [2007 г., Документальный, археология, история, исследования, DVB] skorpionN 1.01 GB
BBC BBC: Horizon. Океаны Солнечной системы / Oceans of the Solar System (David Stewart) [2015 г., Документальный, научно-популярный, HDTVRip 720p] skorpionN 1.5 GB
Показать сообщения:    

Текущее время: Сегодня 16:58

Часовой пояс: GMT



Вы не можете начинать темы
Вы не можете отвечать на сообщения
Вы не можете редактировать свои сообщения
Вы не можете удалять свои сообщения
Вы не можете голосовать в опросах
Вы не можете прикреплять файлы к сообщениям
Вы не можете скачивать файлы