BBC: Horizon. Поглощенные черной дырой / Swallowed by a Black Hole (2013) HDTVRip

 
Автор Сообщение

sergej644 ®

Пол:

Стаж: 4 года 11 месяцев

Сообщений: 6043

Откуда: Soviet Union



Награды: Нет

Торрент-статистика

Создавать темы 20-Авг-2014 19:32

[Цитировать]

- BBC: Horizon. Поглощенные черной дырой / Swallowed by a Black Hole (2013) HDTVRip - Режиссер / Телекомпания: BBC
Русское название: Поглощенные черной дырой
Оригинальное название: Swallowed by a Black Hole
Год выпуска: 2013
Жанр: Документальный, научно-познавательный
Выпущено: Великобритания, BBC
Описание:
Ничто не притягивает нас больше, чем опасные места, находящиеся за рамками нашего понимания. Одно из таких мест наверное самое странное из всех - это чёрная дыра, точка выхода из Вселенной, скрытая потайная дверь в ткани времени и пространства... Сверхкрупная черная дыра (квазар) решила "перекусить". Когда чёрная дыра начинает "обедать", пожирая материю, она начинает выбрасывать энергию. Каково это погрузиться в пустоту, проникнуть в темные тайны черной дыры? Астрономы попытаются это выяснить. Впервые черная дыра, находящаяся в самом центра нашей Вселенной готова приоткрыть свои тайны. Как космический ветер, эта энергия уносит материю обратно от центра галактики, не давая ей соединиться и образовать новые звезды. Вывод такой: общее число звезд в галактике напрямую зависит от того, насколько мощная чёрная дыра в её центре. Чёрные дыры - это абсолютный механизм, движущая сила, которая определяет допустимые размеры и возможно форму галактики. Единственное, что мы знаем о черных дырах - они являются границей между видимой Вселенной и тем местом, что находится за пределами, доступными науке. Астрономы планируют наблюдать в марте редкое явление — поглощение чёрной дырой гигантского газового облака внутри галактики Млечный путь. Обреченное облако G2, космический объект в три раза тяжелее Земли, неумолимо движется к супермассивной черной дыре в центре нашей галактики, известной как Стрелец А. Она расположена на расстоянии 26 тысяч световых лет от нашей планеты. Газовое облако, которое, по остроумному определению астрономов, станет для черной дыры самым сытным обедом за века, приблизится к ней вплотную уже весной этого года, и редчайшее зрелище поглощения ознаменуется невероятным космическим фейерверком, мощнейшими вспышками рентгеновских лучей. В предвкушении астрономы из Европейской южной обсерватории уже создали компьютерную симуляцию того, как, возможно, это будет выглядеть. Но на деле картина может оказаться еще более впечатляющей. Все зависит от того, что внутри облака. Если там в основном водород, то вспышки, излучения могут длиться годами. За трансляцией поглощения, которую будет вести телескоп Swift, могут наблюдать не только специалисты, но и все желающие онлайн на специальном сайте.
Режиссёр: Дэн Клифтон
Озвучено: Видео-фильм ТВ
Перевод: Профессиональный двухголосый
Продолжительность: ~ 00:48:05
Видеокодек: XVID
Битрейт видео: ~1750 kb/s
Размер кадра: 720 x 400
Качество видео: HDTVRip
Аудиокодек: AC-3, 2ch.
Битрейт аудио: 192 kb/s

MediaInfo

Формат : AVI
Формат/Информация : Audio Video Interleave
Размер файла : 671 Мбайт
Продолжительность : 48 м.
Общий поток : 1952 Кбит/сек
Название фильма : BBC. Horizon. Swallowed by a Black Hole
Режиссёр : HDTVRip by Thunder
Программа кодирования : VirtualDubMod 1.5.10.3 | www.virtualdub-fr.org || (build 2550/release)
Формат оригинала/Имя : Documentary
Видео
Идентификатор : 0
Формат : MPEG-4 Visual
Профиль формата : Advanced Simple@L5
Параметр BVOP формата : 2
Параметр QPel формата : Нет
Параметр GMC формата : Без точки перехода
Параметр матрицы формата : Default (H.263)
Идентификатор кодека : XVID
Идентификатор кодека/Подсказка : XviD
Продолжительность : 48 м.
Битрейт : 1750 Кбит/сек
Ширина : 720 пикселей
Высота : 400 пикселей
Соотношение сторон : 16:9
Частота кадров : 25,000 кадров/сек
Цветовое пространство : YUV
Субдискретизация насыщенности : 4:2:0
Битовая глубина : 8 бит
Тип развёртки : Прогрессивная
Метод сжатия : С потерями
Бит/(Пиксели*Кадры) : 0.243
Размер потока : 602 Мбайт (90%)
Библиотека кодирования : XviD 1.2.1 (UTC 2008-12-04)
Аудио
Идентификатор : 1
Формат : AC-3
Формат/Информация : Audio Coding 3
Расширение режима : CM (complete main)
Идентификатор кодека : 2000
Продолжительность : 48 м.
Вид битрейта : Постоянный
Битрейт : 192 Кбит/сек
Каналы : 2 канала
Расположение каналов : Front: L R
Частота : 48,0 КГц
Битовая глубина : 16 бит
Метод сжатия : С потерями
Размер потока : 66,1 Мбайт (10%)
Выравнивание : Разделение по промежуткам
Продолжительность промежутка : 40 мс. (1,00 видеокадр)
Время предзагрузки промежутка : 500 мс.
Скриншоты: Время раздачи: 24/7. До первых 5 скачавших.
Rip by Thunder
[Профиль] [ЛС]
Кто просматривает тему:

Форум Тема Автор Размер
BBC BBC: Horizon. В поисках бессмертия / Horizon. The Immortalist (Tristan Quinn) [2016 г., Документальный, научно-познавательный, HDTVRip-AVC 720p] skorpionN 1.52 GB
BBC BBC: Horizon. Лекарство от Альцгеймера / Curing Alzheimer's (Charles Colville) [2016 г., Документальный, научно-популярный, медицина, HDTVRip 720p] skorpionN 1.51 GB
BBC BBC: Horizon. Океаны Солнечной системы / Oceans of the Solar System (David Stewart) [2015 г., Документальный, научно-популярный, HDTVRip 720p] skorpionN 1.5 GB
BBC BBC: Horizon. Почему мы толстеем? / Why Are We Getting So Fat? (Milla Harrison-Hansley) [2016 г., Документальный, научно-популярный, HDTVRip 720p] skorpionN 1.52 GB
BBC BBC: Horizon. Стоит ли есть мясо? / Horizon. Should I Eat Meat? [2 серии] (Daniel Barry, Michael Lachmann) [2014 г., Документальный, научно-познавательный, HDTVRip 720p] skorpionN 2.64 GB
BBC BBC: Horizon. Таблетки, которым мы доверяем (Поглотители таблеток,Таблеткоглотатели) / Pill Poppers [сезон 46 серия 10] (Эмма Джей / Emma Jay) [2010 г., Документальный, научно-популярный, медицина,... skorpionN 1.51 GB
BBC BBC: Horizon. Танцы на грани тьмы - это конец физики? / Horizon. Dancing in the Dark - The End of Physics? (Peter Leonard) [2015 г., Документальный, научно-познавательный, SATRip] skorpionN 696 MB
BBC BBC: Horizon. Электронные сигареты: чудо или угроза? / Horizon. E-Cigarettes: Miracle or Menace? (Emma Hatherley) [2016 г., Документальный, научно-познавательный, HDTVRip-AVC 720p] skorpionN 1.81 GB
Показать сообщения:    

Текущее время: Сегодня 06:16

Часовой пояс: GMT



Вы не можете начинать темы
Вы не можете отвечать на сообщения
Вы не можете редактировать свои сообщения
Вы не можете удалять свои сообщения
Вы не можете голосовать в опросах
Вы не можете прикреплять файлы к сообщениям
Вы не можете скачивать файлы