BBC: Horizon. Мой домашний динозавр / My Pet Dinosaur [сезон 43 эпизод 8] (Mark Everest) [2007 г., Документальный, археология, история, исследования, DVB]

 
Автор Сообщение

skorpionN ®

Пол:

Стаж: 2 года 5 месяцев

Сообщений: 777



Награды: 4 (Подробнее)

Mega Seeder 3 (Количество: 1) Top Releaser 2 (Количество: 1) Mega Seeder 2 (Количество: 1)
Торрент-статистика

Создавать темы 03-Авг-2017 11:43

[Цитировать]

BBC: Horizon. Мой домашний динозавр / My Pet Dinosaur [сезон 43 эпизод 8]
Год выпуска: 2007
Страна: Великобритания, BBC and Discovery Channel
Жанр: Документальный, археология, история, исследования
Продолжительность: 00:48:49
Перевод: Профессиональный (двухголосый), компания "Видеофильм ТВ"
Режиссер: Mark Everest
В ролях: Ian Holm, Ailsa Berk, Brent Breithaupt
Описание: 65 миллионов лет назад динозавры исчезли навсегда. Но что, если бы они не вымерли, а продолжили эволюционировать вместе с человеком. Возможно мы бы держали динозавров, как домашних животных, или употребляли бы в пищу, а возможно, некоторые особи динозавров в процессе эволюции смогли бы составить конкуренцию человеку...
Качество: DVB
Формат: MPEG - ts
Видео кодек: MPEG2
Аудио кодек: MPEG Audio
Видео: 720х576 (16:9) анаморфный (1024x576) 25fps ~2600 Kbps
Аудио: MPEG Audio 2 2ch, 48kHz, 192 kbps

Скриншоты


MediaInfo:

Format : MPEG-TS
File size : 1.01 GiB
Duration : 48 min 48 s
Overall bit rate mode : Variable
Overall bit rate : 2 952 kb/s
Video
ID : 4113 (0x1011)
Menu ID : 1 (0x1)
Format : MPEG Video
Format version : Version 2
Format profile : Main@Main
Format settings, BVOP : Yes
Format settings, Matrix : Custom
Format settings, GOP : M=3, N=15
Codec ID : 2
Duration : 48 min 48 s
Bit rate mode : Variable
Bit rate : 2 612 kb/s
Maximum bit rate : 9 800 kb/s
Width : 720 pixels
Height : 576 pixels
Display aspect ratio : 16:9
Frame rate : 25.000 FPS
Standard : PAL
Color space : YUV
Chroma subsampling : 4:2:0
Bit depth : 8 bits
Scan type : Progressive
Scan order : Bottom Field First
Compression mode : Lossy
Bits/(Pixel*Frame) : 0.252
Time code of first frame : 00:00:00:00
Time code source : Group of pictures header
GOP, Open/Closed : Open
GOP, Open/Closed of first fram : Closed
Stream size : 912 MiB (88%)
Audio
ID : 4352 (0x1100)
Menu ID : 1 (0x1)
Format : MPEG Audio
Format version : Version 1
Format profile : Layer 2
Codec ID : 3
Duration : 48 min 48 s
Bit rate mode : Constant
Bit rate : 192 kb/s
Channel(s) : 2 channels
Sampling rate : 48.0 kHz
Compression mode : Lossy
Stream size : 67.0 MiB (7%)
Language : Russian
[Профиль] [ЛС]
Кто просматривает тему:

Форум Тема Автор Размер
BBC BBC: Horizon. Антарктическая полярная станция / Ice Station Antarctica [сезон 52 серия 8] (Simon Winchcombe) [2016 г., Документальный, BDRip 720p] skorpionN 1.63 GB
BBC BBC: Horizon. В поисках бессмертия / Horizon. The Immortalist (Tristan Quinn) [2016 г., Документальный, научно-познавательный, HDTVRip-AVC 720p] skorpionN 1.52 GB
BBC BBC: Horizon. Закат Солнечной системы / The End of The Solar System [сезон 52 эпизод 5] (George Harris) [2016 г., Документальный, научно-популярный, HDTVRip-AVC 720p] skorpionN 1.93 GB
BBC BBC: Horizon. Исчезнувшие племена человечества / The Lost Tribes Of Humanity [сезон 52 эпизод 16] (Giles Harrison) [2016 г., Документальный, научно-популярный, история, исследования, HDTVRip-AVC 720p] skorpionN 1.57 GB
BBC BBC: Horizon. Как устроен ЦЕРН. Спецвыпуск / Inside CERN: A Horizon Special [сезон 52 эпизод 13] (Serena Davies) [2016 г., Документальный, научно-популярный, HDTVRip-AVC 720p] skorpionN 1.94 GB
BBC BBC: Horizon. Лекарство от Альцгеймера / Curing Alzheimer's (Charles Colville) [2016 г., Документальный, научно-популярный, медицина, HDTVRip 720p] skorpionN 1.51 GB
BBC BBC: Horizon. Океаны Солнечной системы / Oceans of the Solar System (David Stewart) [2015 г., Документальный, научно-популярный, HDTVRip 720p] skorpionN 1.5 GB
BBC BBC: Horizon. Поглощенные черной дырой / Swallowed by a Black Hole (2013) HDTVRip sergej644 671 MB
Показать сообщения:    

Текущее время: Сегодня 09:58

Часовой пояс: GMT



Вы не можете начинать темы
Вы не можете отвечать на сообщения
Вы не можете редактировать свои сообщения
Вы не можете удалять свои сообщения
Вы не можете голосовать в опросах
Вы не можете прикреплять файлы к сообщениям
Вы не можете скачивать файлы