BBC Horizon: В какой Вселенной мы находимся? / Which Universe are We in? (Naomi Austin) [2014-2015 г., Документальный, научно-познавательный, SATRip]

 
Автор Сообщение

skorpionN ®

Пол:

Стаж: 1 год 8 месяцев

Сообщений: 586



Награды: 4 (Подробнее)

Mega Seeder 2 (Количество: 1) Mega Seeder 1 (Количество: 1) Mega Seeder 3 (Количество: 1)
Торрент-статистика

Создавать темы 19-Сен-2015 11:15

[Цитировать]

BBC Horizon: В какой Вселенной мы находимся? / Which Universe are We in?
Год выпуска: 2014-2015
Страна: Великобритания, BBC Science Production London
Жанр: Документальный, научно-познавательный
Продолжительность: 00:48:31
Перевод: Профессиональный (двухголосый), компания "Видеофильм ТВ"
Режиссер: Naomi Austin
Описание: Представьте себе мир, где динозавры до сих пор ходят по Земле. Мир, в котором немцы выиграли Вторую мировую войну, и вы президент Соединенных Штатов. Представьте себе мир, где больше неприменимы законы физики и где бесконечные копии вас играют каждую возможную сюжетную линию вашей жизни. Это звучит, как сценарий голливудского фильма, но это далеко не так. Это мультивселенная. Долгое время эта идея считалась псевдонаучной. Сейчас же многие ученые считают ее единственным ответом на многие вопросы.
Качество: SATRip
Формат: AVI
Видео кодек: XviD
Аудио кодек: AC3
Видео: 720x400 25fps ~1800 Kbps
Аудио: AC3 2ch, 48kHz, 192 kbps

Скриншоты


MediaInfo:

Format : AVI
Format/Info : Audio Video Interleave
File size : 691 MiB
Duration : 48mn 30s
Overall bit rate : 1 993 Kbps
Writing application : TMPGEnc Video Mastering Works 5 Version. 5.0.6.38
Writing library : TMPGEnc Video Mastering Works 5 Version. 5.0.6.38
Video
ID : 0
Format : MPEG-4 Visual
Format profile : Advanced Simple@L5
Format settings, BVOP : 2
Format settings, QPel : No
Format settings, GMC : No warppoints
Format settings, Matrix : Default (H.263)
Muxing mode : Packed bitstream
Codec ID : XVID
Codec ID/Hint : XviD
Duration : 48mn 30s
Bit rate : 1 793 Kbps
Width : 720 pixels
Height : 400 pixels
Display aspect ratio : 16:9
Frame rate : 25.000 fps
Color space : YUV
Chroma subsampling : 4:2:0
Bit depth : 8 bits
Scan type : Progressive
Compression mode : Lossy
Bits/(Pixel*Frame) : 0.249
Stream size : 622 MiB (90%)
Writing library : XviD 73
Audio
ID : 1
Format : AC-3
Format/Info : Audio Coding 3
Mode extension : CM (complete main)
Format settings, Endianness : Big
Codec ID : 2000
Duration : 48mn 30s
Bit rate mode : Constant
Bit rate : 192 Kbps
Channel(s) : 2 channels
Channel positions : Front: L R
Sampling rate : 48.0 KHz
Bit depth : 16 bits
Compression mode : Lossy
Stream size : 66.6 MiB (10%)
Alignment : Aligned on interleaves
Interleave, duration : 240 ms (6.00 video frames)
Interleave, preload duration : 224 ms
[Профиль] [ЛС]
Показать сообщения:    

Текущее время: Сегодня 10:28

Часовой пояс: GMT



Вы не можете начинать темы
Вы не можете отвечать на сообщения
Вы не можете редактировать свои сообщения
Вы не можете удалять свои сообщения
Вы не можете голосовать в опросах
Вы не можете прикреплять файлы к сообщениям
Вы не можете скачивать файлы