BBC: Яркие огни, блестящие умы / Bright Lights Brilliant Minds. A Tale of Three Cities [серии 1-3 из 3] (Клер Тевернор / Clare Tevernor, Хелен Шариатмадари / Helen Shariatmadari) [2014 г., Документальный, история искусств, HDTVRip 720p]

 
Автор Сообщение

skorpionN ®

Пол:

Стаж: 1 год 8 месяцев

Сообщений: 585



Награды: 4 (Подробнее)

Mega Seeder 2 (Количество: 1) Mega Seeder 1 (Количество: 1) Mega Seeder 3 (Количество: 1)
Торрент-статистика

Создавать темы 13-Мар-2016 11:24

[Цитировать]

BBC: Яркие огни, блестящие умы / Bright Lights Brilliant Minds. A Tale of Three Cities [серии 1-3 из 3]
Год выпуска: 2014
Страна: Великобритания, BBC Arts Production London
Жанр: Документальный, история искусств
Продолжительность: 3x~00:50:28
Перевод: Профессиональный (одноголосый), переведено и озвучено на студии "SDI Media" по заказу ТПО Red Media
Режиссер: Клер Тевернор / Clare Tevernor, Хелен Шариатмадари / Helen Shariatmadari
В ролях: Ведущий: Д-р Джеймс Фокс / Dr James Fox
Описание: Dr James Fox рассказывает о трех городах в разные периоды времени, о выдающихся художниках, мыслителях, писателях и музыкантах, которые повлияли на развитие культуры и общественной жизни общества.
Список серий:
01. Вена 1908 / Vienna 1908
Д-р Джеймс Фокс рассказывает о Вене в 1908 году, городе удивительного творчества. Это был год, в который Густав Климт создал свой шедевр Поцелуй, Зигмунд Фрейд показал, Эдипов комплекс, а музыка и архитектура сделали смелый шаг в радикально - новом направлении. Но это был также год, когда молодой художник по имени Адольф Гитлер прибыл в Вену.
02. Париж 1928 / Paris 1928
Д-р Джеймс Фокс рассказывает о Париже в 1928 г. Это был город, который привлекал людей, мечтающих о лучшем мире после Первой мировой войны. Это был год, когда сюрреалисты Магритт, Дали и Бунюэль принесли их причудливое новое видение людей, и когда эмигрантские писатели и музыканты, такие как Эрнест Хемингуэй и Джордж Гершвин искали в Париже вдохновение.
03. Нью-Йорк 1951 / New York 1951
Д-р Джеймс Фокс рассказывает о Нью-Йорке в 1951 г., Это был год, когда Джексон Поллок принес новый динамизм в американскую живопись, когда родился джаз - стиль известный как бибоп. Именно там молодой Марлон Брандо взял штурмом кино, щеголеватый британец по имени Дэвид Огилви заново открыл рекламу.
Качество: HDTVRip
Формат: MKV
Видео кодек: H.264
Аудио кодек: AC3
Видео: 1280x720 25.00fps 3000 Kbps
Аудио: AC3 2ch, 48kHz, 192 kbps

Скриншоты


MediaInfo:

ormat : Matroska
Format version : Version 4 / Version 2
File size : 1.06 GiB
Duration : 50mn 27s
Overall bit rate mode : Constant
Overall bit rate : 3 010 Kbps
Encoded date : UTC 2015-11-26 14:20:41
Writing application : mkvmerge v7.3.0 ('Nouages') 64bit built on Oct 22 2014 18:53:34
Writing library : libebml v1.3.0 + libmatroska v1.4.1
DURATION : 00:50:27.599000000
NUMBER_OF_FRAMES : 75690
NUMBER_OF_BYTES : 1065677102
_STATISTICS_WRITING_APP : mkvmerge v7.3.0 ('Nouages') 64bit built on Oct 22 2014 18:53:34
_STATISTICS_WRITING_DATE_UTC : 2015-11-26 14:20:41
_STATISTICS_TAGS : BPS DURATION NUMBER_OF_FRAMES NUMBER_OF_BYTES
Video
ID : 1
Format : AVC
Format/Info : Advanced Video Codec
Format profile : High@L4.1
Format settings, CABAC : Yes
Format settings, ReFrames : 3 frames
Codec ID : V_MPEG4/ISO/AVC
Duration : 50mn 27s
Bit rate mode : Constant
Bit rate : 2 758 Kbps
Nominal bit rate : 3 000 Kbps / 3 000 Kbps
Width : 1 280 pixels
Height : 720 pixels
Display aspect ratio : 16:9
Frame rate mode : Constant
Frame rate : 25.000 fps
Standard : NTSC
Color space : YUV
Chroma subsampling : 4:2:0
Bit depth : 8 bits
Scan type : Progressive
Bits/(Pixel*Frame) : 0.120
Stream size : 995 MiB (92%)
Writing library : x264 core 114
Encoding settings : cabac=1 / ref=3 / deblock=1:0:0 / analyse=0x3:0x113 / me=hex / subme=7 / psy=1 / psy_rd=1.00:0.00 / mixed_ref=1 / me_range=16 / chroma_me=1 / trellis=1 / 8x8dct=1 / cqm=2 / deadzone=21,11 / fast_pskip=1 / chroma_qp_offset=-2 / threads=6 / sliced_threads=0 / slices=1 / nr=0 / decimate=1 / interlaced=0 / constrained_intra=0 / bframes=3 / b_pyramid=0 / b_adapt=1 / b_bias=0 / direct=1 / weightb=1 / open_gop=0 / weightp=2 / keyint=250 / keyint_min=25 / scenecut=40 / intra_refresh=0 / rc_lookahead=40 / rc=cbr / mbtree=1 / bitrate=3000 / ratetol=1.0 / qcomp=0.60 / qpmin=3 / qpmax=69 / qpstep=4 / vbv_maxrate=3000 / vbv_bufsize=2998 / nal_hrd=cbr / ip_ratio=1.40 / aq=1:1.00
Default : Yes
Forced : No
Color primaries : BT.709
Transfer characteristics : BT.709
Matrix coefficients : BT.709
Color range : Limited
Audio
ID : 2
Format : AC-3
Format/Info : Audio Coding 3
Mode extension : CM (complete main)
Format settings, Endianness : Big
Codec ID : A_AC3
Duration : 50mn 27s
Bit rate mode : Constant
Bit rate : 192 Kbps
Channel(s) : 2 channels
Channel positions : Front: L R
Sampling rate : 48.0 KHz
Bit depth : 16 bits
Compression mode : Lossy
Stream size : 69.3 MiB (6%)
Default : Yes
Forced : No
[Профиль] [ЛС]
Кто просматривает тему:

Показать сообщения:    

Текущее время: Сегодня 22:42

Часовой пояс: GMT



Вы не можете начинать темы
Вы не можете отвечать на сообщения
Вы не можете редактировать свои сообщения
Вы не можете удалять свои сообщения
Вы не можете голосовать в опросах
Вы не можете прикреплять файлы к сообщениям
Вы не можете скачивать файлы