BBC: Экспедиция "Тигр" (В поисках последнего тигра) / Lost Land of the Tiger [серии 1-3 из 3] (Annie Backhouse, Susanna Handslip, Rowan Musgrave) [2010 г., Документальный, природа, флора, фауна, HDTVRip-AVC 720p]

 
Автор Сообщение

skorpionN ®

Пол:

Стаж: 1 год 8 месяцев

Сообщений: 592



Награды: 4 (Подробнее)

Mega Seeder 1 (Количество: 1) Mega Seeder 3 (Количество: 1) Top Releaser 2 (Количество: 1)
Торрент-статистика

Создавать темы 31-Мар-2016 09:41

[Цитировать]

BBC: Экспедиция "Тигр" (В поисках последнего тигра) / Lost Land of the Tiger [серии 1-3 из 3]
Год выпуска: 2010
Страна: Великобритания, British Broadcasting Corporation (BBC), NDR Naturfilm, National Geographic Channel , Studio Hamburg Filmproduktion
Жанр: Документальный, природа, флора, фауна
Продолжительность: 3x~00:51:37
Перевод: Профессиональный (одноголосый), переведено и озвучено на студии "SDI Media", перевод Н. Малашонок, текст читает Дмитрий Шандро
Режиссер: Annie Backhouse, Susanna Handslip, Rowan Musgrave
В ролях: Стив Бэкшэл, Джордж МакГавин, Джастин Эванс
Описание: Команда специалистов по диким животным получит беспрецедентную возможность отправиться в джунгли Бутана, чтобы попытаться спасти исчезающий вид тигров. На протяжении многих лет Бутан был закрыт для посторонних. Никто не знает, сколько тигров осталось в джунглях, однако, если верить слухам, то существует своего рода зона, протяженностью более 3000 км, в которой свободно перемещаются тигры между Бирмой, Индией и Непалом. Специалисты установят специальные камеры и оборудование, чтобы отслеживать передвижение животных, для этого им придется отправиться в долины, на вершины гор и водопады, и даже пожить вместе с пастухами яков.
Список эпизодов:
Эпизод 1
Исследователь Стив Бэкшэл отправляется на поиски тигров в непроходимые леса. А в это время оператор Джастин Эванс застревает на верхушке дерева во время тропического шторма.
Эпизод 2
В этой серии. Биолог Джордж МакГавин отправляется в Индию, где он, наконец-то, встречается лицом к лицу с королем джунглей. В это время остальные члены команды разыскивают тигров в Бутане.
Эпизод 3
В этой серии. Команда специалистов по диким животным представляют результаты своих исследований премьер-министру Бутана.
Качество: HDTVRip-AVC 720p
Формат: MKV
Видео кодек: H.264
Аудио кодек: AC3
Видео: 1280x720 25.00fps 4500 Kbps
Аудио: AC3 2ch, 48kHz, 192 kbps

MediaInfo:

Format : Matroska
Format version : Version 4 / Version 2
File size : 1.61 GiB
Duration : 51mn 38s
Overall bit rate mode : Constant
Overall bit rate : 4 466 Kbps
Encoded date : UTC 2016-03-31 09:29:38
Writing application : mkvmerge v7.3.0 ('Nouages') 64bit built on Oct 22 2014 18:53:34
Writing library : libebml v1.3.0 + libmatroska v1.4.1
DURATION : 00:51:38.440000000
NUMBER_OF_FRAMES : 77461
NUMBER_OF_BYTES : 1654647900
_STATISTICS_WRITING_APP : mkvmerge v7.3.0 ('Nouages') 64bit built on Oct 22 2014 18:53:34
_STATISTICS_WRITING_DATE_UTC : 2016-03-31 09:29:38
_STATISTICS_TAGS : BPS DURATION NUMBER_OF_FRAMES NUMBER_OF_BYTES
Video
ID : 1
Format : AVC
Format/Info : Advanced Video Codec
Format profile : High@L4.1
Format settings, CABAC : Yes
Format settings, ReFrames : 3 frames
Codec ID : V_MPEG4/ISO/AVC
Duration : 51mn 38s
Bit rate mode : Constant
Bit rate : 4 185 Kbps
Nominal bit rate : 4 500 Kbps / 4 500 Kbps
Width : 1 280 pixels
Height : 720 pixels
Display aspect ratio : 16:9
Frame rate mode : Constant
Frame rate : 25.000 fps
Standard : NTSC
Color space : YUV
Chroma subsampling : 4:2:0
Bit depth : 8 bits
Scan type : Progressive
Bits/(Pixel*Frame) : 0.182
Stream size : 1.51 GiB (94%)
Writing library : x264 core 114
Encoding settings : cabac=1 / ref=3 / deblock=1:0:0 / analyse=0x3:0x113 / me=hex / subme=7 / psy=1 / psy_rd=1.00:0.00 / mixed_ref=1 / me_range=16 / chroma_me=1 / trellis=1 / 8x8dct=1 / cqm=2 / deadzone=21,11 / fast_pskip=1 / chroma_qp_offset=-2 / threads=6 / sliced_threads=0 / slices=1 / nr=0 / decimate=1 / interlaced=0 / constrained_intra=0 / bframes=3 / b_pyramid=0 / b_adapt=1 / b_bias=0 / direct=1 / weightb=1 / open_gop=0 / weightp=2 / keyint=250 / keyint_min=25 / scenecut=40 / intra_refresh=0 / rc_lookahead=40 / rc=cbr / mbtree=1 / bitrate=4500 / ratetol=1.0 / qcomp=0.60 / qpmin=3 / qpmax=69 / qpstep=4 / vbv_maxrate=4500 / vbv_bufsize=4489 / nal_hrd=cbr / ip_ratio=1.40 / aq=1:1.00
Default : Yes
Forced : No
Color primaries : BT.709
Transfer characteristics : BT.709
Matrix coefficients : BT.709
Color range : Limited
Audio
ID : 2
Format : AC-3
Format/Info : Audio Coding 3
Mode extension : CM (complete main)
Format settings, Endianness : Big
Codec ID : A_AC3
Duration : 51mn 38s
Bit rate mode : Constant
Bit rate : 192 Kbps
Channel(s) : 2 channels
Channel positions : Front: L R
Sampling rate : 48.0 KHz
Bit depth : 16 bits
Compression mode : Lossy
Stream size : 70.9 MiB (4%)
Default : Yes
Forced : No

Внимание:

Раздача ведётся путём добавления новых серий; при каждом добавлении создаётся новый торрент. Чтобы начать докачку новой серии, пользователям необходимо сделать следующее:
- Остановить скачивание.
- Удалить старый торрент у себя из клиента (старые серии удалять не надо).
- Скачать новый торрент и запустить его у себя в клиенте вместо старого, при этом указать клиенту путь в старую папку куда и должно происходить скачивание новых серий.
Добавлено
Эпизод 3
[Профиль] [ЛС]
Кто просматривает тему:

Показать сообщения:    

Текущее время: Сегодня 20:44

Часовой пояс: GMT



Вы не можете начинать темы
Вы не можете отвечать на сообщения
Вы не можете редактировать свои сообщения
Вы не можете удалять свои сообщения
Вы не можете голосовать в опросах
Вы не можете прикреплять файлы к сообщениям
Вы не можете скачивать файлы