BBC: Шотландия. Последний рубеж Рима / Scotland: Rome's Final Frontier (Andy Twaddle) [2012 г., Документальный, история. археология, HDTVRip-AVC 720p]

 
Автор Сообщение

skorpionN ®

Пол:

Стаж: 2 года 8 месяцев

Сообщений: 857



Награды: 4 (Подробнее)

Top Releaser 2 (Количество: 1) Mega Seeder 2 (Количество: 1) Mega Seeder 3 (Количество: 1)
Торрент-статистика

Создавать темы 04-Сен-2017 10:39

[Цитировать]

BBC: Шотландия. Последний рубеж Рима / Scotland: Rome's Final Frontier
Год выпуска: 2012
Страна: Великобритания, BBC Scotland
Жанр: Документальный, история. археология
Продолжительность: 00:58:38
Перевод: Профессиональный (двухголосый), переведено и озвучено на студии "SDI Media" по заказу ТПО "Red Media"
Режиссер: Andy Twaddle
В ролях: ведущий - археолог, др. Фрейзер Хантер
Описание: Кем были древние шотландские племена для Римской империи? Или Шотландию просто не стоит завоевывать? Археолог Доктор Фрейзер Хантер исследует факты контактов и конфликтов шотландских племён и римских захватчиков. Автор проводит параллели между прошлым и настоящим, пытается найти ответ на извечный вопрос: "В конце концов, как мы должны оценить влияние Рима на Шотландию ... силой агрессии или движущей силой перемен, прекрасной возможностью развития или смертельной опасностью. Две стороны одной медали..». Эта программа использует нумизматические доказательства, чтобы пролить свет на сложные отношения Шотландии с Римом.
Качество: HDTVRip-AVC
Формат: MKV
Видео кодек: H.264
Аудио кодек: AC3
Видео: 1280x720 25.00fps 5000 Kbps
Аудио: AC3 2ch, 48kHz, 192 kbps

Скриншоты


MediaInfo:

Format : Matroska
Format version : Version 4 / Version 2
File size : 2.12 GiB
Duration : 58 min 38 s
Overall bit rate mode : Variable
Overall bit rate : 5 171 kb/s
Encoded date : UTC 2017-09-04 07:34:02
Writing application : mkvmerge v6.9.1 ('Blue Panther') 64bit built on Apr 18 2014 18:23:38
Writing library : libebml v1.3.0 + libmatroska v1.4.1
Video
ID : 1
Format : AVC
Format/Info : Advanced Video Codec
Format profile : High@L4.1
Format settings, CABAC : Yes
Format settings, ReFrames : 3 frames
Codec ID : V_MPEG4/ISO/AVC
Duration : 58 min 38 s
Bit rate mode : Variable
Bit rate : 5 000 kb/s
Maximum bit rate : 8 000 kb/s
Width : 1 280 pixels
Height : 720 pixels
Display aspect ratio : 16:9
Frame rate mode : Constant
Frame rate : 25.000 FPS
Standard : NTSC
Color space : YUV
Chroma subsampling : 4:2:0
Bit depth : 8 bits
Scan type : Progressive
Bits/(Pixel*Frame) : 0.217
Stream size : 2.00 GiB (94%)
Writing library : x264 core 114
Encoding settings : cabac=1 / ref=3 / deblock=1:0:0 / analyse=0x3:0x113 / me=hex / subme=7 / psy=1 / psy_rd=1.00:0.00 / mixed_ref=1 / me_range=16 / chroma_me=1 / trellis=1 / 8x8dct=1 / cqm=2 / deadzone=21,11 / fast_pskip=1 / chroma_qp_offset=-4 / threads=6 / sliced_threads=0 / slices=1 / nr=0 / decimate=1 / interlaced=0 / constrained_intra=0 / bframes=3 / b_pyramid=0 / b_adapt=1 / b_bias=0 / direct=1 / weightb=1 / open_gop=0 / weightp=2 / keyint=250 / keyint_min=25 / scenecut=40 / intra_refresh=0 / rc_lookahead=40 / rc=2pass / mbtree=1 / bitrate=5000 / ratetol=1.0 / qcomp=0.60 / qpmin=5 / qpmax=69 / qpstep=4 / cplxblur=20.0 / qblur=0.5 / vbv_maxrate=8000 / vbv_bufsize=7995 / nal_hrd=vbr / ip_ratio=1.40 / aq=1:1.00
Default : Yes
Forced : No
Color range : Limited
Color primaries : BT.709
Transfer characteristics : BT.709
Matrix coefficients : BT.709
Audio
ID : 2
Format : AC-3
Format/Info : Audio Coding 3
Mode extension : CM (complete main)
Format settings, Endianness : Big
Codec ID : A_AC3
Duration : 58 min 38 s
Bit rate mode : Constant
Bit rate : 192 kb/s
Channel(s) : 2 channels
Channel positions : Front: L R
Sampling rate : 48.0 kHz
Frame rate : 31.250 FPS (1536 spf)
Compression mode : Lossy
Stream size : 80.5 MiB (4%)
Default : Yes
Forced : No
[Профиль] [ЛС]

ARI71

Стаж: 1 год 3 месяца

Сообщений: 82



Награды: Нет

Торрент-статистика

Создавать темы 04-Сен-2017 14:17 (спустя 3 часа)

[Цитировать]

Спасибо
[Профиль] [ЛС]
Кто просматривает тему:

Показать сообщения:    

Текущее время: Сегодня 05:41

Часовой пояс: GMT



Вы не можете начинать темы
Вы не можете отвечать на сообщения
Вы не можете редактировать свои сообщения
Вы не можете удалять свои сообщения
Вы не можете голосовать в опросах
Вы не можете прикреплять файлы к сообщениям
Вы не можете скачивать файлы