BBC. Чудо животного мира / Wonder of Animals / Сезон: 1 / Серии: 1-5 из 12 (Крис Пэкэм) [2014, Документальный, природа, фауна, HDTVRip 720p]

 
Автор Сообщение

TorrentFilm ®

Пол:

Стаж: 2 года

Сообщений: 7741



Награды: Нет

Торрент-статистика

Создавать темы 17-Дек-2014 02:30

[Цитировать]

-BBC. Чудо животного мира / Wonder of Animals-- Год выпуска: 2014
Страна: Великобритания
Студия: BBC
Жанр: Документальный, природа, фауна
Продолжительность: ~ 00:30:00-Перевод: Одноголосый закадровый
Доп. инфо о переводе: Владимир Курдов
Русские субтитры: нет
В ролях: Крис Пэкэм-Описание: Как они устроены? Почему выживают там, где не смог бы выжить ни один другой вид животных? Что позволяет становиться им лидерами в своем ареале? Крис Пэкэм задался этим вопросом и с помощью научно-исследовательских методов взялся за изучение анатомии, физиологии и поведения животных, чтобы выяснить, как конкретно все вышеперечисленное помогает им существовать в мире беспощадной природы. С помощью чего муравьи так слаженно работают, а хищники охотятся? Крис как-будто становится на место зверя, чтобы это выяснить. Удивительно красочная серия фильмов перенесет зрителя в обычно скрытый мир флоры и фауны, и раскроет много тайн и секретов.-Сэмпл: http://multi-up.com/1004700-Тип релиза: HDTVRip 720p
Контейнер: MKV
Видео: 1280x720 at 25 fps, x264@L4.1, ~ 3168 kbps
Аудио: AC3, 2 ch, 192 kbps-Релиз от: -

Содержание

01. Penguins / Пингвины
02. Bears / Медведи
03. Big Cats / Большие Кошки
04. Ants / Муравьи
05. Foxes / Лисицы

MediaInfo

Общее
Уникальный идентификатор                 : 215452659654423827948501355422048202026 (0xA216AC4209454B3E8FE219F021962D2A)
Полное имя                               : The.Wonder.of.Animals.s01.HDTV.720p.NewStudio.TV\The.Wonder.of.Animals.03.HDTV.720p.NewStudio.TV.mkv
Формат                                   : Matroska
Версия формата                           : Version 4 / Version 2
Размер файла                             : 834 Мбайт
Продолжительность                        : 29 м.
Общий поток                              : 3993 Кбит/сек
Дата кодирования                         : UTC 2014-10-08 09:39:02
Программа кодирования                    : mkvmerge v6.7.0 ('Back to the Ground') 32bit built on Jan  8 2014 15:03:17
Библиотека кодирования                   : libebml v1.3.0 + libmatroska v1.4.1
Видео
Идентификатор                            : 1
Формат                                   : AVC
Формат/Информация                        : Advanced Video Codec
Профиль формата                          : Main@L3.1
Параметр CABAC формата                   : Да
Параметр ReFrames формата                : 4 кадра
Идентификатор кодека                     : V_MPEG4/ISO/AVC
Продолжительность                        : 29 м.
Битрейт                                  : 3721 Кбит/сек
Ширина                                   : 1280 пикселей
Высота                                   : 720 пикселей
Соотношение сторон                       : 16:9
Режим частоты кадров                     : Постоянный
Частота кадров                           : 25,000 кадров/сек
Цветовое пространство                    : YUV
Субдискретизация насыщенности            : 4:2:0
Битовая глубина                          : 8 бит
Тип развёртки                            : Прогрессивная
Бит/(Пиксели*Кадры)                      : 0.162
Размер потока                            : 777 Мбайт (93%)
Библиотека кодирования                   : x264 core 119
Настройки программы                      : cabac=1 / ref=1 / deblock=1:0:0 / analyse=0x1:0x1 / me=dia / subme=1 / psy=1 / psy_rd=1.00:0.00 / mixed_ref=0 / me_range=16 / chroma_me=1 / trellis=0 / 8x8dct=0 / cqm=0 / deadzone=21,11 / fast_pskip=1 / chroma_qp_offset=0 / threads=4 / sliced_threads=0 / nr=0 / decimate=1 / interlaced=0 / bluray_compat=0 / constrained_intra=0 / bframes=3 / b_pyramid=2 / b_adapt=1 / b_bias=0 / direct=1 / weightb=1 / open_gop=0 / weightp=1 / keyint=250 / keyint_min=25 / scenecut=40 / intra_refresh=0 / rc=crf / mbtree=0 / crf=23.0 / qcomp=0.60 / qpmin=0 / qpmax=69 / qpstep=4 / ip_ratio=1.40 / pb_ratio=1.30 / aq=1:1.00
Default                                  : Да
Forced                                   : Нет
Аудио
Идентификатор                            : 2
Формат                                   : AC-3
Формат/Информация                        : Audio Coding 3
Расширение режима                        : CM (complete main)
Параметр Endianness формата              : Big
Идентификатор кодека                     : A_AC3
Продолжительность                        : 29 м.
Вид битрейта                             : Постоянный
Битрейт                                  : 192 Кбит/сек
Каналы                                   : 2 канала
Расположение каналов                     : Front: L R
Частота                                  : 48,0 КГц
Битовая глубина                          : 16 бит
Метод сжатия                             : С потерями
Размер потока                            : 40,1 Мбайт (5%)
Default                                  : Да
Forced                                   : Нет

Скриншоты

[Профиль] [ЛС]
Кто просматривает тему:

Показать сообщения:    

Текущее время: Сегодня 14:34

Часовой пояс: GMT



Вы не можете начинать темы
Вы не можете отвечать на сообщения
Вы не можете редактировать свои сообщения
Вы не можете удалять свои сообщения
Вы не можете голосовать в опросах
Вы не можете прикреплять файлы к сообщениям
Вы не можете скачивать файлы