BBC: Человеческая Вселенная / Human Universe (Сезон 1 / Серии 2 из 5) (Эндрю Коэн / Andrew Cohen) [2014, Документальный, BDRip 720p]

 
Author Message

TorrentFilm ®

Gender:

Longevity: 4 years 5 months

Posts: 7763



: None

Торрент-статистика

Post 14-Jun-2015 00:05

[Quote]

BBC: Человеческая Вселенная / Human Universe (Сезон 1 / Серии 2 из 5) (Эндрю Коэн / Andrew Cohen)
-Название: Человеческая Вселенная
Оригинальное название: Human Universe
Жанр: Документальный
Год выпуска: 2014
Страна: Великобритания
Продолжительность: 2 х ~00:60:00
Перевод: Двухголосый закадровый (студия «Омикрон»)
Русские субтитры: нет
-Режиссёр: Эндрю Коэн / Andrew Cohen-В ролях: Брайан Кокс / Brian Cox-Описание: Профессор Брайан Кокс задаст самые важные вопросы какие только мы можем задать. Одни ли мы? Почему мы здесь? Какое наше будущее? Присоединитесь к нему в потрясающем торжестве жизни человека, как он исследует свои истоки, наше место и нашу судьбу во Вселенной.-Episodes 1-5:
Episode 1 - Apeman Spaceman / Человек умелый - Человек космический
Episode 2 - Why Are We Here? / Почему мы здесь?

Episode 3 - Are We Alone?
Episode 4 - A Place In Space And Time
Episode 5 - What Is Our Future?
-Доп. информация:
-Раздача от: by DeTorquemada-Качество: BDRip 720p
Формат видео: MKV
Видео: 1280x720 at 25.000 fps, High@L4.1, 3179 kbps
Аудио#1: Russian:48 kHz/16-bit, АС3, 2/0 (L,R) ch, 640 kbps |Двухголосый закадровый, студия «Омикрон»|
Аудио#2: English:48 kHz/16-bit, АС3, 2/0 (L,R) ch, 640 kbps
Субтитры: English
-
  • Сохранены оригинальные главы как на Blu-ray.
  • Перевод и озвучивание осуществлено в рамках сервиса "Озвучивание". Спонсоры: RAUL, McClaud, KarAl, motpac, Turko, ktara, Igor_M, shmidd, yoman88, semion, DeTorquemada, zoloft, DOMINO, Elday, terminal, Frunzik, himikell, baivlad, pteco, Plesha, k_igor, longru, SBUA, sum, utadmin.

-

MediaInfo

GeneralУникальный идентификатор : 174078562513139766359672988189532949207 (0x82F64FC6758178FFA00980710A210AD7)Полное имя : E:\Мои релизы\BBC Человеческая Вселенная Human Universe (Сезон 1 Серии 02 из 05) (Эндрю Коэн Andrew Cohen) - HDCLUB\01. Human.Universe.2014.S01E01.720p.BluRay.Rus.Eng.HDCLUB.mkvФормат : MatroskaВерсия формата : Version 4 / Version 2Размер файла : 1.88 GiBПродолжительность : 59mn 2sОбщий поток : 4 550 KbpsНазвание фильма : Create by DeTorquemada for HDCLUBДата кодирования : UTC 2015-04-02 05:46:17Программа кодирования : mkvmerge v7.8.0 ('River Man') 64bit built on Mar 27 2015 16:31:37Библиотека кодирования : libebml v1.3.1 + libmatroska v1.4.2
VideoИдентификатор : 1Формат : AVCФормат/Информация : Advanced Video CodecПрофиль формата : High@L4.1Параметр CABAC формата : YesПараметр ReFrames формата : 7 framesИдентификатор кодека : V_MPEG4/ISO/AVCПродолжительность : 59mn 2sБитрейт : 3 179 KbpsШирина : 1 280 pixelsВысота : 720 pixelsСоотношение сторон : 16:9Режим частоты кадров : ConstantЧастота кадров : 25.000 fpsЦветовое пространство : YUVСубдискретизация насыщенности : 4:2:0Битовая глубина : 8 bitsТип развёртки : ProgressiveБит/(Пиксели*Кадры) : 0.138Размер потока : 1.31 GiB (70%)Заголовок : Human Universe. Episode 1: Apeman Spaceman / Человеческая Вселенная. Эпизод 1: Человек умелый - Человек космический (2014) - Release for HDCLUBБиблиотека кодирования : x264 core 142 r2431 ac76440Настройки программы : cabac=1 / ref=7 / deblock=1:-3:-3 / analyse=0x3:0x113 / me=umh / subme=10 / psy=1 / psy_rd=1.00:0.00 / mixed_ref=1 / me_range=48 / chroma_me=1 / trellis=2 / 8x8dct=1 / cqm=0 / deadzone=21,11 / fast_pskip=1 / chroma_qp_offset=-2 / threads=6 / lookahead_threads=1 / sliced_threads=0 / nr=0 / decimate=1 / interlaced=0 / bluray_compat=0 / constrained_intra=0 / bframes=3 / b_pyramid=2 / b_adapt=2 / b_bias=0 / direct=1 / weightb=1 / open_gop=0 / weightp=2 / keyint=250 / keyint_min=25 / scenecut=40 / intra_refresh=0 / rc_lookahead=65 / rc=crf / mbtree=0 / crf=18.0 / qcomp=0.60 / qpmin=0 / qpmax=69 / qpstep=4 / vbv_maxrate=50000 / vbv_bufsize=62500 / crf_max=0.0 / nal_hrd=none / filler=0 / ip_ratio=1.40 / pb_ratio=1.30 / aq=1:0.80Язык : EnglishDefault : YesForced : NoMatrix coefficients : BT.709
Audio #1Идентификатор : 2Формат : AC-3Формат/Информация : Audio Coding 3Расширение режима : CM (complete main)Параметр Endianness формата : BigИдентификатор кодека : A_AC3Продолжительность : 59mn 2sВид битрейта : ConstantБитрейт : 640 KbpsКаналы : 2 channelsРасположение каналов : Front: L RЧастота : 48.0 KHzБитовая глубина : 16 bitsМетод сжатия : LossyРазмер потока : 270 MiB (14%)Заголовок : 48 kHz/16-bit, АС3, 2/0 (L,R) ch, 640 kbps |Двухголосый закадровый, студия «Омикрон»|Язык : RussianDefault : YesForced : No
Audio #2Идентификатор : 3Формат : AC-3Формат/Информация : Audio Coding 3Расширение режима : CM (complete main)Параметр Endianness формата : BigИдентификатор кодека : A_AC3Продолжительность : 59mn 2sВид битрейта : ConstantБитрейт : 640 KbpsКаналы : 2 channelsРасположение каналов : Front: L RЧастота : 48.0 KHzБитовая глубина : 16 bitsМетод сжатия : LossyРазмер потока : 270 MiB (14%)Заголовок : 48 kHz/16-bit, АС3, 2/0 (L,R) ch, 640 kbpsDefault : NoForced : No
TextИдентификатор : 4Формат : UTF-8Идентификатор кодека : S_TEXT/UTF8Идентификатор кодека/Информация : UTF-8 Plain TextЗаголовок : Subtitles/CaptionsЯзык : EnglishDefault : NoForced : No
Menu00:00:00.000 : en:00:09:04.720 : en:00:21:07.640 : en:00:32:47.719 : en:00:46:49.800 : en:00:59:02.000 : en:

-

Скриншоты

-ПРИЯТНОГО ПРОСМОТРА!-
[Profile] [PM]
Кто просматривает тему:

Display posts from previous:    

The time now is: Today 05:55

All times are GMT



You cannot post new topics in this forum
You cannot reply to topics in this forum
You cannot edit your posts in this forum
You cannot delete your posts in this forum
You cannot vote in polls in this forum
You cannot attach files in this forum
You cannot download files in this forum