BBC: Цвет: Спектр науки / Colour: The Spectrum of Science [серии 1-3 из 3] (Alex Hemingway) [2015 г., Документальный, научно-познавательный, HDTVRip 720p ]

 
Автор Сообщение

skorpionN ®

Пол:

Стаж: 1 год 8 месяцев

Сообщений: 585



Награды: 4 (Подробнее)

Mega Seeder 1 (Количество: 1) Mega Seeder 3 (Количество: 1) Top Releaser 2 (Количество: 1)
Торрент-статистика

Создавать темы 16-Мар-2016 17:55

[Цитировать]

BBC: Цвет: Спектр науки / Colour: The Spectrum of Science [серии 1-3 из 3]
Год выпуска: 2015
Страна: Великобритания, BBC Scotland, Open University Partnership
Жанр: Документальный, научно-познавательный
Продолжительность: 00:52:00
Перевод: Профессиональный (двухголосый), Видеофильм ТВ
Режиссер: Alex Hemingway
В ролях: Dr. Helen Czerski
Описание: Всего 15 цветов могут рассказать всю историю Земли, жизни и научных открытий. Наша планета со своими растениями, океанами, радугами, разнообразием животного мира выделяется из черноты космоса, как разноцветный драгоценный камень.
Список серий:
01. Какого цвета Земля / Colours of Earth
В первом эпизоде, Хелен ищет цвета, которые превратили Землю в разноцветную планету. Для исследования солнечного света Хелен едет в Калифорнию, чтобы посетить самый большой солнечный телескоп в мире. Она поведает нам, как самый яркий синий цвет образуется из атомов серы глубоко внутри земной коры и почему наличие красной охры является одним из ключевых признаков жизни. Мы узнаем почему самый ценный из металлов не должен существовать на поверхности планеты. Для изучения белого цвета, Хелен едет в одно из самых жарких мест на Земле для изучения роли соли и воды, которую они играют в формировании планеты Земля.
02. Цвета жизни / Colours of Life
Хелен исследует цвета - которые часто являются самым маленьким и самым неуловимыми. Она отправляется в горы, чтобы увидеть красочную матовую поверхность светлячков, исследует морских существ, которые могут изменить цвет кожи для того, чтобы скрываться в этом мире.
03. За границами радуги / Beyond the Rainbow
В заключительной серии Хелен поможет нам заглянут за границы видимого спектра. Прежде чем углубиться в детали УФ, инфракрасных и рентгеновских лучей, она исследует вопрос субъективности восприятия цвета. В заключение мы познакомимся с некоторыми удивительными методами визуализации, которые показывают наши тела в совершенно новом свете.
Качество: HDTVRip 720p
Формат: MKV
Видео кодек: H.264
Аудио кодек: AC3
Видео: 1280x720 25.00fps 3500 Kbps
Аудио: AC3 2ch, 48kHz, 192 kbps

Скриншоты


MediaInfo:

Format : Matroska
Format version : Version 2
File size : 1.26 GiB
Duration : 51mn 56s
Overall bit rate mode : Constant
Overall bit rate : 3 481 Kbps
Encoded date : UTC 2016-03-16 16:22:02
Writing application : TMPGEnc Video Mastering Works 5 Version. 5.0.6.38
Writing library : TMPGEnc Video Mastering Works 5 Version. 5.0.6.38
Video
ID : 2
Format : AVC
Format/Info : Advanced Video Codec
Format profile : High@L4.1
Format settings, CABAC : Yes
Format settings, ReFrames : 3 frames
Codec ID : V_MPEG4/ISO/AVC
Duration : 51mn 56s
Bit rate mode : Constant
Bit rate : 3 220 Kbps
Nominal bit rate : 3 500 Kbps / 3 500 Kbps
Width : 1 280 pixels
Height : 720 pixels
Display aspect ratio : 16:9
Frame rate mode : Constant
Frame rate : 25.000 fps
Standard : NTSC
Color space : YUV
Chroma subsampling : 4:2:0
Bit depth : 8 bits
Scan type : Progressive
Bits/(Pixel*Frame) : 0.140
Stream size : 1.17 GiB (92%)
Writing library : x264 core 114
Encoding settings : cabac=1 / ref=3 / deblock=1:0:0 / analyse=0x3:0x113 / me=hex / subme=7 / psy=1 / psy_rd=1.00:0.00 / mixed_ref=1 / me_range=16 / chroma_me=1 / trellis=1 / 8x8dct=1 / cqm=2 / deadzone=21,11 / fast_pskip=1 / chroma_qp_offset=-2 / threads=6 / sliced_threads=0 / slices=1 / nr=0 / decimate=1 / interlaced=0 / constrained_intra=0 / bframes=3 / b_pyramid=0 / b_adapt=1 / b_bias=0 / direct=1 / weightb=1 / open_gop=0 / weightp=2 / keyint=250 / keyint_min=25 / scenecut=40 / intra_refresh=0 / rc_lookahead=40 / rc=cbr / mbtree=1 / bitrate=3500 / ratetol=1.0 / qcomp=0.60 / qpmin=3 / qpmax=69 / qpstep=4 / vbv_maxrate=3500 / vbv_bufsize=3489 / nal_hrd=cbr / ip_ratio=1.40 / aq=1:1.00
Default : Yes
Forced : No
Color primaries : BT.709
Transfer characteristics : BT.709
Matrix coefficients : BT.709
Color range : Limited
Audio
ID : 1
Format : AC-3
Format/Info : Audio Coding 3
Mode extension : CM (complete main)
Format settings, Endianness : Big
Codec ID : A_AC3
Duration : 51mn 56s
Bit rate mode : Constant
Bit rate : 192 Kbps
Channel(s) : 2 channels
Channel positions : Front: L R
Sampling rate : 48.0 KHz
Bit depth : 16 bits
Compression mode : Lossy
Stream size : 71.3 MiB (6%)
Default : Yes
Forced : No

Внимание:

Раздача ведётся путём добавления новых серий; при каждом добавлении создаётся новый торрент. Чтобы начать докачку новой серии, пользователям необходимо сделать следующее:
- Остановить скачивание.
- Удалить старый торрент у себя из клиента (старые серии удалять не надо).
- Скачать новый торрент и запустить его у себя в клиенте вместо старого, при этом указать клиенту путь в старую папку куда и должно происходить скачивание новых серий.
Добавлено
02. Цвета жизни / Colours of Life
03. За границами радуги / Beyond the Rainbow


Последний раз редактировалось: skorpionN (2016-03-19 14:19), всего редактировалось 2 раз(а)
[Профиль] [ЛС]

KiruhaDelMar

Стаж: 1 год 8 месяцев

Сообщений: 246



Награды: Нет

Торрент-статистика

Создавать темы 17-Мар-2016 07:15 (спустя 13 часов)

[Цитировать]

яж предупреждал что с патронами вернусь hunter
[Профиль] [ЛС]

skorpionN ®

Пол:

Стаж: 1 год 8 месяцев

Сообщений: 585



Награды: 4 (Подробнее)

Mega Seeder 3 (Количество: 1) Mega Seeder 1 (Количество: 1) Top Releaser 2 (Количество: 1)
Торрент-статистика

Создавать темы 19-Мар-2016 14:22 (спустя 2 дня 7 часов)

[Цитировать]

Сезон окончен
[Профиль] [ЛС]
Кто просматривает тему:

Показать сообщения:    

Текущее время: Сегодня 14:36

Часовой пояс: GMT



Вы не можете начинать темы
Вы не можете отвечать на сообщения
Вы не можете редактировать свои сообщения
Вы не можете удалять свои сообщения
Вы не можете голосовать в опросах
Вы не можете прикреплять файлы к сообщениям
Вы не можете скачивать файлы