BBC: Удивительный мир Альбера Кана / The Wonderful World of Albert Kahn [серии 1-6, 8,9 из 10] (Мик Конфри) [2007-2008 г., Документальный, история, SATRip] DVO

 
Автор Сообщение

skorpionN ®

Пол:

Стаж: 1 год 8 месяцев

Сообщений: 585



Награды: 4 (Подробнее)

Mega Seeder 2 (Количество: 1) Mega Seeder 3 (Количество: 1) Mega Seeder 1 (Количество: 1)
Торрент-статистика

Создавать темы 19-Мар-2015 08:00

[Цитировать]

BBC: Удивительный мир Альбера Кана / The Wonderful World of Albert Kahn [серии 1-6, 8,9 из 10]
Год выпуска: 2007-2008
Страна: Великобритания, BBC and Albert Kahn Museum
Жанр: Документальный, история искусств
Продолжительность: 8х ~ 00:51:00
Перевод: Профессиональный (двухголосый)
Режиссер: Мик Конфри
Доп. информация: русская дорожка позаимствована из SatRip озвучено на студии СВ Дубль по заказу ГТРК "Культура"
7 и 10 серии канал Культура не показывал
Качество: SATRip
Формат: AVI
Видео кодек: XviD
Аудио кодек: AC3
Видео: 720x400 25fps ~1800 Kbps
Аудио: AC3 2ch, 48kHz, 192 kbps
Описание: 1908 году, французский банкир и промышленник Альбер Кан положил начало пожалуй одному из самых амбициозных проектов в истории фотографии. Кан нанял группу фотографов и отправил их во все уголки земного шара; дабы в снимках увековечить то, как живут люди на земле. Используя своё личное, огромное состояние Кан снабдил свою команду самой совершенной на то время фото-техникой. Они использовали автохром, первую в мире систему способную создавать настоящие цветные фотографии. Более двух десятилетий Кан отправлял своих фотографов по всему миру. Отснято около 100 часов документального кино, сделано 72 тысячи поразительных автохромов. Альбер Кан назвал свой необычный проект "Архивом планеты" и постоянно увеличивал список технических средств для его осуществления.
Список серий:

01. Видение мира / A Vision of the World

Альбер Кан назвал свой необычный проект "Архивом планеты" и постоянно увеличивал список технических средств для его осуществления. Его фильмы и фотографии запечатлели раз и навсегда мимолетные мгновения уходящего времени: уличные сценки в Париже, сельских рабочих Бретани, последнюю традиционную кельтскую деревню в Ирландии, пейзажи и жителей Корнуолла, последние дни британского общества перед Первой мировой войной.

02. Люди мира / Men of the World

В 1908 году Альбер Кан и его шофер отправляются в кругосветное путешествие, во время которого они посетили США, Японию и Китай. Эта поездка также давала Кану возможность испытать самую современную фотокамеру, способную делать снимки в реальном цвете.

03. Европа на грани войны / Europe on the Brink

В 1910 фотограф Кана Огуст Леон отправляется в Скандинавские страны - Норвегию и Швецию. На его фотографиях запечатлена сельская Швеция, еще не тронутая урбанизацией, люди в национальных одеждах, традиционный уклад жизни. В 1912 году Кан отправляет фотографов в Италию, которые помимо прекрасной архитектуры зафиксировали насколько бедной была эта страна накануне Первой мировой. Кан был убежденным пацифистом, его задачей было показать людей разных культур, религий и национальностей и способствовать пониманию и толерантности между этими людьми.

04. Солдатская история / The Soldiers Story

С 1914 по 1918 годы фотографы Кана побывали на местах военных сражений, им удалось запечатлеть разрушения войны и ужасные условия, в которых приходилось воевать солдатам.

05. История мирного населения / The Civilians Story

Фотографии Кана, отображающие историю жизни, героизма и трудностей французов во время Первой мировой, уникальны. Вряд ли где-то в мире существует подобная коллекция цветных фотографий этого периода. Когда боевые действия окончились, фотографы его архива вновь смогли свободно перемещаться по миру. В двадцатые годы Кан увеличил масштаб своего проекта. Его сотрудники отправлялись на юг, в Африку, путешествовали в Азию и совершали вылазки на Ближний Восток.

06. Европа после войны / Europe after the Fire

В ноябре 1918 года парижане праздновали перемирие, положившее конец войне с Германией. Операторы Альбера Кана снимали сцены празднования на парижских бульварах. Мирная конференция по окончании Первой мировой войны была для Альбера Кана осуществлением его политических идеалов. Здесь люди доброй воли, независимо от их образа мыслей, культурного и исторического происхождения, сошлись вместе. Кан был одним из немногих, кому разрешили направить оператора в знаменитый Зеркальный зал Версаля снимать подписание мирного договора и сам документ крупным планом.
07. Ближний Восток - Рождение нации / Middle East the Birth of Nations отсутствует bn

08. Экспедиция на Восток / Far East Expeditions to Empires

Альбер Кан был увлечен Востоком. Он снарядил фотографов во Вьетнам, Камбоджу, Индокитай и Японию. Здесь было меньше политики, больше историй о культурных традициях. Операторам удалось снять уникальные кадры, такие, например, как выступление королевского балета в Камбодже. Также они посетили храм Ангкор. А в Токио 1920-х годов запечатлели на пленку увлечение японских девушек европейскими прическами.

09. Край света / The End of a World

Появляется первая цветная фотопленка. Кан снаряжает экспедиции в Ньюфаундленд, Алжир, Марокко, Касабланку, Париж. В дальних французских колониях в Африке, фотографы Кана снимают местные племена и ритуалы.
10. Япония в цвете / Japan in Colour отсутствует bn

Скриншоты


MediaInfo:

Format : AVI
Format/Info : Audio Video Interleave
File size : 741 MiB
Duration : 51mn 46s
Overall bit rate : 2 002 Kbps
Writing application : VirtualDubMod 1.5.10.3 | www.virtualdub-fr.org || (build 2550/release)
Writing library : VirtualDubMod build 2550/release
Video
ID : 0
Format : MPEG-4 Visual
Format profile : Advanced Simple@L5
Format settings, BVOP : 2
Format settings, QPel : No
Format settings, GMC : No warppoints
Format settings, Matrix : Default (H.263)
Codec ID : XVID
Codec ID/Hint : XviD
Duration : 51mn 46s
Bit rate : 1 800 Kbps
Width : 720 pixels
Height : 400 pixels
Display aspect ratio : 16:9
Frame rate : 25.000 fps
Color space : YUV
Chroma subsampling : 4:2:0
Bit depth : 8 bits
Scan type : Progressive
Compression mode : Lossy
Bits/(Pixel*Frame) : 0.250
Stream size : 666 MiB (90%)
Writing library : XviD 1.2.1 (UTC 2008-12-04)
Audio
ID : 1
Format : AC-3
Format/Info : Audio Coding 3
Mode extension : CM (complete main)
Format settings, Endianness : Big
Codec ID : 2000
Duration : 51mn 46s
Bit rate mode : Constant
Bit rate : 192 Kbps
Channel(s) : 2 channels
Channel positions : Front: L R
Sampling rate : 48.0 KHz
Bit depth : 16 bits
Compression mode : Lossy
Stream size : 71.1 MiB (10%)
Alignment : Split accross interleaves
Interleave, duration : 40 ms (1.00 video frame)
Interleave, preload duration : 500 ms


Последний раз редактировалось: skorpionN (2015-03-24 05:52), всего редактировалось 1 раз
[Профиль] [ЛС]

juozas43

Пол:

Стаж: 1 год 8 месяцев

Сообщений: 3



Награды: Нет

Торрент-статистика

Создавать темы 22-Мар-2015 07:26 (спустя 2 дня 23 часа)

[Цитировать]

skorpionN,
Не забыл про мои птицы?
[Профиль] [ЛС]

skorpionN ®

Пол:

Стаж: 1 год 8 месяцев

Сообщений: 585



Награды: 4 (Подробнее)

Mega Seeder 1 (Количество: 1) Top Releaser 2 (Количество: 1) Mega Seeder 3 (Количество: 1)
Торрент-статистика

Создавать темы 22-Мар-2015 07:42 (спустя 15 минут)

[Цитировать]

juozas43, теперь не до птиц.
[Профиль] [ЛС]
Кто просматривает тему:

Показать сообщения:    

Текущее время: Сегодня 08:49

Часовой пояс: GMT



Вы не можете начинать темы
Вы не можете отвечать на сообщения
Вы не можете редактировать свои сообщения
Вы не можете удалять свои сообщения
Вы не можете голосовать в опросах
Вы не можете прикреплять файлы к сообщениям
Вы не можете скачивать файлы