BBC: Танцы дикой природы / Nature's Greatest Dancers [серии 1-2 из 2] (Christina Nutter) [2015 г., Документальный, фауна, флора, HDTVRip 720p]

 
Автор Сообщение

skorpionN ®

Пол:

Стаж: 2 года 9 месяцев

Сообщений: 881



Награды: 4 (Подробнее)

Mega Seeder 2 (Количество: 1) Mega Seeder 1 (Количество: 1) Mega Seeder 3 (Количество: 1)
Торрент-статистика

Создавать темы 18-Дек-2016 17:30

[Цитировать]

BBC: Танцы дикой природы / Nature's Greatest Dancers [серии 1-2 из 2]
Год выпуска: 2015
Страна: Великобритания, BBC
Жанр: Документальный, фауна, флора
Продолжительность: 2x~00:50:47
Перевод: Профессиональный (одноголосый), озвучено студией "Кондор" по заказу ГТРК "Культура"
Режиссер: Флер Кингстон
В ролях: ведущий - Steve Backshall
Описание: В животном мире существует множество прирожденных артистов. Они применяют свои поразительные навыки во всех аспектах жизни: будь-то привлечение самки или поиск пищи. Их уникальный стиль движений меняется в зависимости от среды обитания. У животных завидное чувство ритма, безупречное чувство времени и врожденная грация. Кажется, что они исполняют замысловатый танец. Но в отличие от нас, животные танцуют не ради забавы, а с определенной целью. Каждый прыжок, покачивание и вращение имеют свой особый смысл. Наш фильм покажет, что скрывается за эффектными танцами в исполнении животных.
Список серий:
01. Танец любви / The Dance for Love
У животных сформировались самые разные способы завоевания любви, порой весьма экстравагантные. Чаще всего от влюбленных взглядов, ухаживаний и настойчивых преследований они переходят к ожесточенным схваткам с соперниками, и в финале - к соблазнению объекта своей страсти.
02. Танец жизни / The Dance for Life
С момента рождения в дикой среде, животное должно обучиться необходимому набору движений, который поможет ему выживать на каждом этапе своего существования. Начиная от естественной потребности в передвижении, сложнейших повседневных действий по добыванию пищи до самых важных, порой весьма необычных движений, которые совершают животные, чтобы избежать опасности и сохранить жизнь.
Качество: HDTVRip 720p
Формат: MKV
Видео кодек: H.264
Аудио кодек: AC3
Видео: 1280x720 25.00 fps 3400 kbps
Аудио: AC3 2ch, 48kHz, 192 kbps

Скриншоты


MediaInfo:

Format : Matroska
Format version : Version 4 / Version 2
File size : 1.27 GiB
Duration : 50 min 46 s
Overall bit rate mode : Variable
Overall bit rate : 3 591 kb/s
Encoded date : UTC 2016-12-18 16:05:35
Writing application : mkvmerge v7.3.0 ('Nouages') 64bit built on Oct 22 2014 18:53:34
Writing library : libebml v1.3.0 + libmatroska v1.4.1
Video
ID : 1
Format : AVC
Format/Info : Advanced Video Codec
Format profile : High@L4.1
Format settings, CABAC : Yes
Format settings, ReFrames : 3 frames
Codec ID : V_MPEG4/ISO/AVC
Duration : 50 min 46 s
Bit rate mode : Variable
Bit rate : 3 400 kb/s
Maximum bit rate : 8 000 kb/s
Width : 1 280 pixels
Height : 720 pixels
Display aspect ratio : 16:9
Frame rate mode : Constant
Frame rate : 25.000 FPS
Standard : NTSC
Color space : YUV
Chroma subsampling : 4:2:0
Bit depth : 8 bits
Scan type : Progressive
Bits/(Pixel*Frame) : 0.148
Stream size : 1.20 GiB (95%)
Writing library : x264 core 114
Encoding settings : cabac=1 / ref=3 / deblock=1:0:0 / analyse=0x3:0x113 / me=hex / subme=7 / psy=1 / psy_rd=1.00:0.00 / mixed_ref=1 / me_range=16 / chroma_me=1 / trellis=1 / 8x8dct=1 / cqm=2 / deadzone=21,11 / fast_pskip=1 / chroma_qp_offset=-4 / threads=6 / sliced_threads=0 / slices=1 / nr=0 / decimate=1 / interlaced=0 / constrained_intra=0 / bframes=3 / b_pyramid=0 / b_adapt=1 / b_bias=0 / direct=1 / weightb=1 / open_gop=0 / weightp=2 / keyint=250 / keyint_min=25 / scenecut=40 / intra_refresh=0 / rc_lookahead=40 / rc=2pass / mbtree=1 / bitrate=3400 / ratetol=1.0 / qcomp=0.60 / qpmin=5 / qpmax=69 / qpstep=4 / cplxblur=20.0 / qblur=0.5 / vbv_maxrate=8000 / vbv_bufsize=7995 / nal_hrd=vbr / ip_ratio=1.40 / aq=1:1.00
Default : Yes
Forced : No
Color range : Limited
Color primaries : BT.709
Transfer characteristics : BT.709
Matrix coefficients : BT.709
Audio
ID : 2
Format : AC-3
Format/Info : Audio Coding 3
Mode extension : CM (complete main)
Format settings, Endianness : Big
Codec ID : A_AC3
Duration : 50 min 46 s
Bit rate mode : Constant
Bit rate : 192 kb/s
Channel(s) : 2 channels
Channel positions : Front: L R
Sampling rate : 48.0 kHz
Frame rate : 31.250 FPS (1536 spf)
Compression mode : Lossy
Stream size : 69.7 MiB (5%)
Language : Russian
Default : Yes
Forced : No

Внимание:

Раздача ведётся путём добавления новых серий; при каждом добавлении создаётся новый торрент. Чтобы начать докачку новой серии, пользователям необходимо сделать следующее:
- Остановить скачивание.
- Удалить старый торрент у себя из клиента (старые серии удалять не надо).
- Скачать новый торрент и запустить его у себя в клиенте вместо старого, при этом указать клиенту путь в старую папку куда и должно происходить скачивание новых серий.
Добавлено
01. Танец любви / The Dance for Love


Последний раз редактировалось: skorpionN (2017-01-11 14:53), всего редактировалось 2 раз(а)
[Профиль] [ЛС]

KiruhaDelMar

Стаж: 2 года 8 месяцев

Сообщений: 290



Награды: Нет

Торрент-статистика

Создавать темы 19-Дек-2016 20:35 (спустя 1 день 3 часа)

[Цитировать]

вы бы товарисч лучшеб Арктикой занялись а не ерундой которую уже вся страна посмотрела
[Профиль] [ЛС]

skorpionN ®

Пол:

Стаж: 2 года 9 месяцев

Сообщений: 881



Награды: 4 (Подробнее)

Mega Seeder 2 (Количество: 1) Mega Seeder 3 (Количество: 1) Top Releaser 2 (Количество: 1)
Торрент-статистика

Создавать темы 20-Дек-2016 17:04 (спустя 20 часов)

[Цитировать]

106178вы бы товарисч лучшеб Арктикой занялись а не ерундой которую уже вся страна посмотрела
А мы повторы крутим. Может кто не успел посмотреть bk
[Профиль] [ЛС]
Кто просматривает тему:

Показать сообщения:    

Текущее время: Сегодня 00:21

Часовой пояс: GMT



Вы не можете начинать темы
Вы не можете отвечать на сообщения
Вы не можете редактировать свои сообщения
Вы не можете удалять свои сообщения
Вы не можете голосовать в опросах
Вы не можете прикреплять файлы к сообщениям
Вы не можете скачивать файлы