BBC: Тайная жизнь близнецов / The Secret Life of Twins (Luke Wiles) [2015 г., Документальный, научно-популярный, SATRip]

 
Автор Сообщение

skorpionN ®

Пол:

Стаж: 2 года 9 месяцев

Сообщений: 881



Награды: 4 (Подробнее)

Mega Seeder 3 (Количество: 1) Mega Seeder 1 (Количество: 1) Mega Seeder 2 (Количество: 1)
Торрент-статистика

Создавать темы 03-Дек-2016 13:49

[Цитировать]

BBC: Тайная жизнь близнецов / The Secret Life of Twins
Год выпуска: 2015
Страна: Великобритания, BBC, Oxford Scientific Films Ltd
Жанр: Документальный, научно-популярный
Продолжительность: 00:46:14
Перевод: Профессиональный (двухголосый), Видеофильм ТВ
Режиссер: Luke Wiles
Описание: Одно из самых поразительных явлений. Идентичные близнецы. Каким образом дети, родившиеся с одной ДНК, растут очень похожими, но поразительно разными? Авторы фильма встретятся с самыми удивительными близнецами.
Качество: SATRip
Формат: AVI
Видео кодек: XviD
Аудио кодек: AC3
Видео: 720x400 25.00 fps 1600 kbps
Аудио: AC3 2ch, 48kHz, 192 kbps

Скриншоты


MediaInfo:

Format : AVI
Format/Info : Audio Video Interleave
File size : 584 MiB
Duration : 46 min 13 s
Overall bit rate : 1 767 kb/s
Writing application : TMPGEnc Video Mastering Works 5 Version. 5.0.6.38
Writing library : TMPGEnc Video Mastering Works 5 Version. 5.0.6.38
Video
ID : 0
Format : MPEG-4 Visual
Format profile : Advanced Simple@L5
Format settings, BVOP : 2
Format settings, QPel : No
Format settings, GMC : No warppoints
Format settings, Matrix : Default (H.263)
Muxing mode : Packed bitstream
Codec ID : XVID
Codec ID/Hint : XviD
Duration : 46 min 13 s
Bit rate : 1 568 kb/s
Width : 720 pixels
Height : 400 pixels
Display aspect ratio : 16:9
Frame rate : 25.000 FPS
Color space : YUV
Chroma subsampling : 4:2:0
Bit depth : 8 bits
Scan type : Progressive
Compression mode : Lossy
Bits/(Pixel*Frame) : 0.218
Stream size : 518 MiB (89%)
Writing library : XviD 73
Audio
ID : 1
Format : AC-3
Format/Info : Audio Coding 3
Mode extension : CM (complete main)
Format settings, Endianness : Big
Codec ID : 2000
Duration : 46 min 13 s
Bit rate mode : Constant
Bit rate : 192 kb/s
Channel(s) : 2 channels
Channel positions : Front: L R
Sampling rate : 48.0 kHz
Frame rate : 31.250 FPS (1536 spf)
Compression mode : Lossy
Stream size : 63.5 MiB (11%)
Alignment : Aligned on interleaves
Interleave, duration : 240 ms (6.00 video frames)
Interleave, preload duration : 224 ms
[Профиль] [ЛС]

ARI71

Стаж: 1 год 4 месяца

Сообщений: 82



Награды: Нет

Торрент-статистика

Создавать темы 03-Дек-2016 13:53 (спустя 4 минуты)

[Цитировать]

Mersi
[Профиль] [ЛС]

KiruhaDelMar

Стаж: 2 года 8 месяцев

Сообщений: 289



Награды: Нет

Торрент-статистика

Создавать темы 03-Дек-2016 16:46 (спустя 2 часа 52 минуты)

[Цитировать]

а шош ты хадешку не сделкал
[Профиль] [ЛС]

skorpionN ®

Пол:

Стаж: 2 года 9 месяцев

Сообщений: 881



Награды: 4 (Подробнее)

Mega Seeder 3 (Количество: 1) Top Releaser 2 (Количество: 1) Mega Seeder 2 (Количество: 1)
Торрент-статистика

Создавать темы 04-Дек-2016 07:46 (спустя 15 часов)

[Цитировать]

105599а шош ты хадешку не сделкал
А я тебе оставил работу.
[Профиль] [ЛС]
Кто просматривает тему:

Показать сообщения:    

Текущее время: Сегодня 16:58

Часовой пояс: GMT



Вы не можете начинать темы
Вы не можете отвечать на сообщения
Вы не можете редактировать свои сообщения
Вы не можете удалять свои сообщения
Вы не можете голосовать в опросах
Вы не можете прикреплять файлы к сообщениям
Вы не можете скачивать файлы