BBC: Сокрытые миры / Hidden Kingdoms [s01] (2014) BDRip 720p от HDClub

 
Автор Сообщение

sergej644 ®

Пол:

Стаж: 4 года 11 месяцев

Сообщений: 6041

Откуда: Soviet Union



Награды: Нет

Торрент-статистика

Создавать темы 27-Окт-2014 18:34

[Цитировать]

Информация о фильме
Название: BBC: Сокрытые миры
Оригинальное название: Hidden Kingdoms
Год выхода: 2014
Жанр: Документальный, научно-познавательный, природа, фауна, исследование
Страна: Великобритания
Студия: British Broadcasting Corporation (BBC)
Продолжительность: 3 x ~ 00:43:00
Перевод: Авторский (одноголосый закадровый) Владимир Курдов
Режиссер: Саймон Белл
О фильме:
Новый инновационный сериал от мастеров жанра канала ВВС. На этот раз мы не просто станем свидетелями жизни животных, а перенесемся в мир миниатюры, где маленькие существа борются за жизнь наравне с большими и сильными обитателями фауны. Мы увидим, как они видят нас. Сможем заметить, как от движений маленьких животных шевелятся травинки. Уникальный спектр съемки позволит уловить самые незаметные движения. Мы узнаем мир их глазами, в полной мере ощутив себя гостями парка Юрского периода. Леса Борнео, пустыни Африки и Аризоны, мрачные леса Северной Америки и даже городские джунгли Токио и Рио! Они повсюду, они живут по своим законам, но настало время раскрыть большие тайны маленьких существ и еще раз восхититься уникальной и мудрой природой нашей планеты.

Содержание

01. Under Open Skies | Под открытым небом
Первая серия это истории о двух юных существах вынужденных рано повзрослеть. В Африканской саванне слоновый прыгунчик узнает что скорость является секретом выживания, а в Американской пустыне Сонора молодой кузнечиковый хомячок научится противостоять смертоносным тварям Дикого Запада.
02. Secret Forests | Таинственные леса
03. Urban Jungles | Городские джунгли

MI

Общее
Уникальный идентификатор : 245569710536370951513788312224157758744 (0xB8BF0182609904999D52680AF2C97518)
Полное имя : Hidden.Kingdoms.2014.720p.BluRay.Rus.Eng.HDCLUBSecret.Forests.2014.720p.BluRay.Rus.Eng.HDCLUB.mkv
Формат : Matroska
Версия формата : Version 4 / Version 2
Размер файла : 2,31 Гбайт
Продолжительность : 51 м.
Общий поток : 6396 Кбит/сек
Название фильма : Create by DeTorquemada for HDCLUB
Дата кодирования : UTC 2014-10-25 12:00:57
Программа кодирования : mkvmerge v7.2.0 ('On Every Street') 64bit built on Sep 13 2014 15:52:10
Библиотека кодирования : libebml v1.3.0 + libmatroska v1.4.1
Видео
Идентификатор : 1
Формат : AVC
Формат/Информация : Advanced Video Codec
Профиль формата : High@L4.1
Параметр CABAC формата : Да
Параметр ReFrames формата : 7 кадров
Идентификатор кодека : V_MPEG4/ISO/AVC
Продолжительность : 51 м.
Битрейт : 4568 Кбит/сек
Ширина : 1280 пикселей
Высота : 720 пикселей
Соотношение сторон : 16:9
Режим частоты кадров : Постоянный
Частота кадров : 23,976 кадра/сек
Цветовое пространство : YUV
Субдискретизация насыщенности : 4:2:0
Битовая глубина : 8 бит
Тип развёртки : Прогрессивная
Бит/(Пиксели*Кадры) : 0.207
Размер потока : 1,65 Гбайт (71%)
Заголовок : Скрытые леса / Secret Forests (2014) - Release for HDCLUB
Библиотека кодирования : x264 core 142 r2431 ac76440
Настройки программы : cabac=1 / ref=7 / deblock=1:-3:-3 / analyse=0x3:0x113 / me=umh / subme=10 / psy=1 / psy_rd=1.00:0.00 / mixed_ref=1 / me_range=48 / chroma_me=1 / trellis=2 / 8x8dct=1 / cqm=0 / deadzone=21,11 / fast_pskip=1 / chroma_qp_offset=-2 / threads=6 / lookahead_threads=1 / sliced_threads=0 / nr=0 / decimate=1 / interlaced=0 / bluray_compat=0 / constrained_intra=0 / bframes=3 / b_pyramid=2 / b_adapt=2 / b_bias=0 / direct=1 / weightb=1 / open_gop=0 / weightp=2 / keyint=240 / keyint_min=23 / scenecut=40 / intra_refresh=0 / rc_lookahead=65 / rc=crf / mbtree=0 / crf=17.0 / qcomp=0.60 / qpmin=0 / qpmax=69 / qpstep=4 / vbv_maxrate=50000 / vbv_bufsize=62500 / crf_max=0.0 / nal_hrd=none / filler=0 / ip_ratio=1.40 / pb_ratio=1.30 / aq=1:0.80
Язык : English
Default : Да
Forced : Нет
Коэффициенты матрицы : BT.709
Аудио #1
Идентификатор : 2
Формат : AC-3
Формат/Информация : Audio Coding 3
Расширение режима : CM (complete main)
Параметр Endianness формата : Big
Идентификатор кодека : A_AC3
Продолжительность : 51 м.
Вид битрейта : Постоянный
Битрейт : 192 Кбит/сек
Каналы : 2 канала
Расположение каналов : Front: L R
Частота : 48,0 КГц
Битовая глубина : 16 бит
Метод сжатия : С потерями
Размер потока : 70,9 Мбайт (3%)
Заголовок : 48KHz/16-bit, AC3, 2.0 (L,R) ch, 192 kbps - AVO V.Kurdov
Язык : Russian
Default : Да
Forced : Нет
Аудио #2
Идентификатор : 3
Формат : DTS
Формат/Информация : Digital Theater Systems
Режим : 16
Параметр Endianness формата : Big
Идентификатор кодека : A_DTS
Продолжительность : 51 м.
Вид битрейта : Постоянный
Битрейт : 1509 Кбит/сек
Каналы : 6 каналов
Расположение каналов : Front: L C R, Side: L R, LFE
Частота : 48,0 КГц
Битовая глубина : 16 бит
Метод сжатия : С потерями
Размер потока : 557 Мбайт (24%)
Заголовок : 48KHz/16-bit, DTS, 3/2 (L,C,R,l,r) + LFE ch, 1509 kbps - Stephen Fry
Язык : English
Default : Нет
Forced : Нет
Текст
Идентификатор : 4
Формат : UTF-8
Идентификатор кодека : S_TEXT/UTF8
Идентификатор кодека/Информация : UTF-8 Plain Text
Заголовок : Subtitles/Captions
Язык : Dutch
Default : Нет
Forced : Нет
Меню
00:00:00.000 : en:
00:10:59.533 : en:
00:21:39.131 : en:
00:39:22.735 : en:
00:50:01.206 : en:
00:50:37.951 : en:
Файл
Исходник: Сокрытые миры / Hidden Kingdoms (2014) {2-Disc Edition} Blu-ray 1080p AVC DTS-HD 5.1
Формат: MKV
Видео: 1280x720 at 23.976 fps, x264@L4.1, 4568-5786 kbps
Аудио: Russian: 48KHz/16-bit, AC3, 2.0 (L,R) ch, 192 kbps |Профессиональный одноголосый, Владимир Курдов|
Аудио: English: 48KHz/16-bit, DTS, 3/2 (L,C,R,l,r) + LFE ch, 1509 kbps |Стивен Фрай|
Субтитры: Dutch
Исходник: Сокрытые миры / Hidden Kingdoms (2014) {2-Disc Edition} Blu-ray 1080p AVC DTS-HD 5.1
Формат: MKV
Видео: 1280x720 at 25.000 fps, x264@L4.1, ~7474-8766 kbps
Аудио: English: 48KHz/16-bit, AC3, 2.0 (L,R) ch, 640 kbps
Субтитры: none
Сохранены оригинальные чаптеры как на Blu-ray.
HDClub by DeTorquemada

Скриншоты

Episode 1: Under Open Skies / Под открытым небом
Продолжительность: 00:51:24
This is the story of two young animals forced to grow up fast. In Africa's savannah, a baby elephant shrew learns how speed is the secret to survival amongst the largest animals on Earth; and in America, a young grasshopper mouse confronts the Wild West's deadliest creatures to stake a claim of his own.

Episode 2: Secret Forests / Скрытые леса / Таинственные леса
Продолжительность: 00:50:38
This is the story of two tiny animals coming of age.
In the wild woods of North America, a young chipmunk is gathering a vital store of nuts ahead of his first winter - in his way are ruthless rivals and giant predators.
In the steaming rainforest, a young tree shrew is forced deep into the jungle to find food. She must draw on all her intelligence and agility if she is to escape the ultimate jungle predator - a reticulated python!

Episode 3: Urban Jungles / Городские джунгли
Продолжительность: 00:51:56
This is the ultimate hidden kingdom - the urban jungle.
In the colourful and chaotic streets of Rio, a young marmoset is separated from his street gang and forced to confront of the dangers of the city alone.
In the futuristic metropolis of Tokyo, a rhinoceros beetle escapes his captors and begins an extraordinary journey through this alien world to find sanctuary.

Supplements
Making of Hidden Kingdoms
[Профиль] [ЛС]
Кто просматривает тему:

Показать сообщения:    

Текущее время: Сегодня 01:09

Часовой пояс: GMT



Вы не можете начинать темы
Вы не можете отвечать на сообщения
Вы не можете редактировать свои сообщения
Вы не можете удалять свои сообщения
Вы не можете голосовать в опросах
Вы не можете прикреплять файлы к сообщениям
Вы не можете скачивать файлы