BBC: Сокровища Инда / Treasures of the Indus [серии 1-3 из 3] (Hugh Thomson) [2015 г., Документальный, путешествие, история, SATRip]

 
Автор Сообщение

skorpionN ®

Пол:

Стаж: 1 год 8 месяцев

Сообщений: 591



Награды: 4 (Подробнее)

Mega Seeder 2 (Количество: 1) Mega Seeder 1 (Количество: 1) Mega Seeder 3 (Количество: 1)
Торрент-статистика

Создавать темы 13-Авг-2016 11:02

[Цитировать]

BBC: Сокровища Инда / Treasures of the Indus [серии 1-3 из 3]
Год выпуска: 2015
Страна: Великобритания, Tern Television Production Ltd for BBC
Жанр: Документальный, путешествие, история, bcreccndj
Продолжительность: 3x~00:43:00
Перевод: Профессиональный (двухголосый)
Режиссер: Hugh Thomson
В ролях: Ведущая - д-р. Сона Датта / Sona Datta
Описание: Перед нами могучая река Инд, давшая название целому субконтиненту. По этой реке мы отправимся на 5000 лет назад в древнюю Индию, чтобы найти скрытые сокровища. На берегах Инда развивались древние цивилизации. Мы откроем утраченную буддийскую культуру северного Пакистана, насладимся расцветом архитектуры империи великих моголов и причудливыми храмами южной Индии. Каждая культура создавала свои шедевры. В этом мини сериале доктор Сона Датта, историк искусства и куратор Британского музея, расскажет нам о создателях этих шедевров.
Список серий:
01. Тайны Пакистана / Pakistan Unveiled
02. Обратная сторона Тадж-Махала / The Other Side of the Taj Mahal
03. О богах и людях / Of Gods and Men

Доп. информация: Видеофильм ТВ
Качество: SATRip
Формат: AVI
Видео кодек: XviD
Аудио кодек: AC3
Видео: 720x400 25.00 fps 1800 kbps
Аудио: AC3, 2ch, 192 kbps, 48 kHz

Скриншоты


MediaInfo:

Format : AVI
Format/Info : Audio Video Interleave
File size : 614 MiB
Duration : 42mn 59s
Overall bit rate : 1 996 Kbps
Writing application : TMPGEnc Video Mastering Works 6 Trial with Movie Plug-in Version. 6.1.5.26
Writing library : TMPGEnc Video Mastering Works 6 Trial with Movie Plug-in Version. 6.1.5.26
Video
ID : 0
Format : MPEG-4 Visual
Format profile : Advanced Simple@L5
Format settings, BVOP : 2
Format settings, QPel : No
Format settings, GMC : No warppoints
Format settings, Matrix : Default (H.263)
Muxing mode : Packed bitstream
Codec ID : XVID
Codec ID/Hint : XviD
Duration : 42mn 59s
Bit rate : 1 797 Kbps
Width : 720 pixels
Height : 400 pixels
Display aspect ratio : 16:9
Frame rate : 25.000 fps
Color space : YUV
Chroma subsampling : 4:2:0
Bit depth : 8 bits
Scan type : Progressive
Compression mode : Lossy
Bits/(Pixel*Frame) : 0.250
Stream size : 553 MiB (90%)
Writing library : XviD 73
Audio
ID : 1
Format : AC-3
Format/Info : Audio Coding 3
Mode extension : CM (complete main)
Format settings, Endianness : Big
Codec ID : 2000
Duration : 42mn 58s
Bit rate mode : Constant
Bit rate : 192 Kbps
Channel(s) : 2 channels
Channel positions : Front: L R
Sampling rate : 48.0 KHz
Frame rate : 31.250 fps (1536 spf)
Compression mode : Lossy
Stream size : 59.0 MiB (10%)
Alignment : Aligned on interleaves
Interleave, duration : 333 ms (8.34 video frames)

Внимание:

Раздача ведётся путём добавления новых серий; при каждом добавлении создаётся новый торрент. Чтобы начать докачку новой серии, пользователям необходимо сделать следующее:
- Остановить скачивание.
- Удалить старый торрент у себя из клиента (старые серии удалять не надо).
- Скачать новый торрент и запустить его у себя в клиенте вместо старого, при этом указать клиенту путь в старую папку куда и должно происходить скачивание новых серий.
Добавлено
03. О богах и людях / Of Gods and Men


Последний раз редактировалось: skorpionN (2016-08-27 17:59), всего редактировалось 2 раз(а)
[Профиль] [ЛС]

ARI71

Стаж: 3 месяца 27 дней

Сообщений: 62



Награды: Нет

Торрент-статистика

Создавать темы 13-Авг-2016 20:04 (спустя 9 часов)

[Цитировать]

[Профиль] [ЛС]

ARI71

Стаж: 3 месяца 27 дней

Сообщений: 62



Награды: Нет

Торрент-статистика

Создавать темы 21-Авг-2016 07:58 (спустя 7 дней)

[Цитировать]

skorpionN, Вы один из лучших и документалистика отличнейшая!
[Профиль] [ЛС]
Кто просматривает тему:

Показать сообщения:    

Текущее время: Сегодня 01:27

Часовой пояс: GMT



Вы не можете начинать темы
Вы не можете отвечать на сообщения
Вы не можете редактировать свои сообщения
Вы не можете удалять свои сообщения
Вы не можете голосовать в опросах
Вы не можете прикреплять файлы к сообщениям
Вы не можете скачивать файлы