BBC: Сокровища Древней Греции / Treasures of Ancient Greece [серии 1-3 из 3] (David Vincent) [2015 г., Документальный, научно-познавательный, история, искусство, HDTVRip 720p]

 
Автор Сообщение

skorpionN ®

Пол:

Стаж: 1 год 8 месяцев

Сообщений: 587



Награды: 4 (Подробнее)

Top Releaser 2 (Количество: 1) Mega Seeder 1 (Количество: 1) Mega Seeder 2 (Количество: 1)
Торрент-статистика

Создавать темы 19-Ноя-2015 14:23

[Цитировать]

BBC: Сокровища Древней Греции / Treasures of Ancient Greece [серии 1-3 из 3]
Год выпуска: 2015
Страна: Великобритания, BBC Art Production London
Жанр: Документальный, научно-познавательный, история, искусство
Продолжительность: 3x~00:51:01
Перевод: Профессиональный (двухголосый), компания SDI Media по заказу ТПО "Ред Медиа"
Режиссер: David Vincent
В ролях: Ведущий: Алистер Сук / Alastair Sooke
Описание: Именно древние греки дали нам понимание того, каким должно быть искусство. Ни одна другая цивилизация не сыграла такую важную роль в формировании нашего видения совершенства форм, красоты, реалистичности. Сегодня суть реалистического искусства воспринимается нами как само-собой разумеющееся. Однако, изобрели его древние греки. Строго говоря они научили нас видеть. Именно здесь, в древней Греции, зародилась западная цивилизация. Её искусство возникло из более тёмного, удивительного прошлого, старого мира мифов, чудовищ, воображения, с корнями совершенно неожиданных мест, из мира, который продолжают открывать и поныне.
Ведущий Алистер Сук постарается сложить воедино всё что мы знаем о самых ранних влияниях и отделить историю от мифов. Основываясь на эпосе Гомера и открытиях XX века он попробует раскрыть чудо возникновения греческого искусства.
Список серий:
01. Эпоха героев / The Age of Heroes
02. Классическая революция / The Classical Revolution
03. Длинная тень / The Long Shadow

Доп. информация: Видеоряд адаптирован для русской аудиодорожки SatRip
Качество: HDTVRip 720p
Формат: MKV
Видео кодек: H.264
Аудио кодек: AC3
Видео: 1280x720 25.00fps 3500 Kbps
Аудио: AC3 2ch, 48kHz, 192 kbps

Скриншоты


MediaInfo:

Format : Matroska
Format version : Version 4 / Version 2
File size : 1.24 GiB
Duration : 51mn 0s
Overall bit rate mode : Constant
Overall bit rate : 3 488 Kbps
Encoded date : UTC 2015-11-19 14:03:02
Writing application : mkvmerge v7.3.0 ('Nouages') 64bit built on Oct 22 2014 18:53:34
Writing library : libebml v1.3.0 + libmatroska v1.4.1
DURATION : 00:51:00.559000000
NUMBER_OF_FRAMES : 76514
NUMBER_OF_BYTES : 1260124559
_STATISTICS_WRITING_APP : mkvmerge v7.3.0 ('Nouages') 64bit built on Oct 22 2014 18:53:34
_STATISTICS_WRITING_DATE_UTC : 2015-11-19 14:03:02
_STATISTICS_TAGS : BPS DURATION NUMBER_OF_FRAMES NUMBER_OF_BYTES
Video
ID : 1
Format : AVC
Format/Info : Advanced Video Codec
Format profile : High@L4.1
Format settings, CABAC : Yes
Format settings, ReFrames : 3 frames
Codec ID : V_MPEG4/ISO/AVC
Duration : 51mn 0s
Bit rate mode : Constant
Bit rate : 3 226 Kbps
Nominal bit rate : 3 500 Kbps / 3 500 Kbps
Width : 1 280 pixels
Height : 720 pixels
Display aspect ratio : 16:9
Frame rate mode : Constant
Frame rate : 25.000 fps
Standard : NTSC
Color space : YUV
Chroma subsampling : 4:2:0
Bit depth : 8 bits
Scan type : Progressive
Bits/(Pixel*Frame) : 0.140
Stream size : 1.15 GiB (93%)
Writing library : x264 core 114
Encoding settings : cabac=1 / ref=3 / deblock=1:0:0 / analyse=0x3:0x113 / me=hex / subme=7 / psy=1 / psy_rd=1.00:0.00 / mixed_ref=1 / me_range=16 / chroma_me=1 / trellis=1 / 8x8dct=1 / cqm=2 / deadzone=21,11 / fast_pskip=1 / chroma_qp_offset=-2 / threads=6 / sliced_threads=0 / slices=1 / nr=0 / decimate=1 / interlaced=0 / constrained_intra=0 / bframes=3 / b_pyramid=0 / b_adapt=1 / b_bias=0 / direct=1 / weightb=1 / open_gop=0 / weightp=2 / keyint=250 / keyint_min=25 / scenecut=40 / intra_refresh=0 / rc_lookahead=40 / rc=cbr / mbtree=1 / bitrate=3500 / ratetol=1.0 / qcomp=0.60 / qpmin=3 / qpmax=69 / qpstep=4 / vbv_maxrate=3500 / vbv_bufsize=3489 / nal_hrd=cbr / ip_ratio=1.40 / aq=1:1.00
Default : Yes
Forced : No
Color primaries : BT.709
Transfer characteristics : BT.709
Matrix coefficients : BT.709
Color range : Limited
Audio
ID : 2
Format : AC-3
Format/Info : Audio Coding 3
Mode extension : CM (complete main)
Format settings, Endianness : Big
Codec ID : A_AC3
Duration : 51mn 0s
Bit rate mode : Constant
Bit rate : 192 Kbps
Channel(s) : 2 channels
Channel positions : Front: L R
Sampling rate : 48.0 KHz
Bit depth : 16 bits
Compression mode : Lossy
Stream size : 70.1 MiB (6%)
Default : Yes
Forced : No

Внимание:

Раздача ведётся путём добавления новых серий; при каждом добавлении создаётся новый торрент. Чтобы начать докачку новой серии, пользователям необходимо сделать следующее:
- Остановить скачивание.
- Удалить старый торрент у себя из клиента (старые серии удалять не надо).
- Скачать новый торрент и запустить его у себя в клиенте вместо старого, при этом указать клиенту путь в старую папку куда и должно происходить скачивание новых серий.
BBC: Сокровища Древнего Рима / Treasures of Ancient Rome [серии 1-3 из 3] HDTVRip 720p]
BBC: Сокровища Древнего Египта / Treasures of Ancient Egypt [серии 1-3 из 3] HDTVRip 720p]
BBC: Сокровища Древней Греции / Treasures of Ancient Greece [серии 1-3 из 3] HDTVRip 720p]Добавлено 03. Длинная тень / The Long Shadow
[Профиль] [ЛС]

skorpionN ®

Пол:

Стаж: 1 год 8 месяцев

Сообщений: 587



Награды: 4 (Подробнее)

Mega Seeder 2 (Количество: 1) Mega Seeder 3 (Количество: 1) Mega Seeder 1 (Количество: 1)
Торрент-статистика

Создавать темы 02-Дек-2015 18:24 (спустя 13 дней)

[Цитировать]

Сезон окончен
[Профиль] [ЛС]
Кто просматривает тему:

Показать сообщения:    

Текущее время: Сегодня 18:08

Часовой пояс: GMT



Вы не можете начинать темы
Вы не можете отвечать на сообщения
Вы не можете редактировать свои сообщения
Вы не можете удалять свои сообщения
Вы не можете голосовать в опросах
Вы не можете прикреплять файлы к сообщениям
Вы не можете скачивать файлы