BBC: Скрытые убийцы в домах послевоенного времени / Hidden Killers of The Post War Home (Suzanne Phillips) [2015 г., Документальный, история, HDTVRip 720p]

 
Автор Сообщение

skorpionN ®

Пол:

Стаж: 3 года 3 месяца

Сообщений: 944



Награды: 4 (Подробнее)

Mega Seeder 2 (Количество: 1) Mega Seeder 3 (Количество: 1) Top Releaser 2 (Количество: 1)
Торрент-статистика

Создавать темы 14-Дек-2016 08:16

[Цитировать]

BBC: Скрытые убийцы в домах послевоенного времени / Hidden Killers of The Post War Home
Год выпуска: 2015
Страна: Великобритания, Modern Television for BBC
Жанр: Документальный, история
Продолжительность: 00:58:46
Перевод: Профессиональный (одноголосый), переведено и озвучено на студии "SDI Media" по заказу ТПО Red Media, перевод Анны Заславской, текст читает Ольга Зубкова
Режиссер: Сюзанна Филипс / Suzanne Phillips
В ролях: Ведущая - историк др. Сьюзанна Липскомб / Dr Suzannah Lipscomb
Описание:
Мы запомнили 50-е как очень спокойное время, когда никто не запирал двери, соседи могли в любой момент заглянуть, чтобы попросить немного сахара, и на улицах можно было гулять без опаски. Но, как бы иронично это ни звучало, множество скрытых угроз просочились в дома после того, как люди перестали экономить.
В этот раз доктор Сюзанна Липскомб, автор передач о скрытых угрозах, исследует времена, когда британцы впервые за многие годы приняли новизну современного дизайна. Вы увидите дома после военных 1950-х годов в "современном" мире мебели из склеенной фанеры, в мире, где используют стекловолокно, пластик и полиэстер, т.е. все инновационные материалы Второй мировой. Кстати, ни одна предыдущая или последующая война не имела такого серьёзного влияния на технологии нашей современной жизни. Эта яркая новая эра охватывает целый ряд социальных изменений, в том числе повышение уровня жизни и улучшение технологий, но не все изменения прошли без последствий. Доктор Сюзанна Липскомб расскажет нам о всех скрытых угрозах в домах послевоенного периода: от наборов юного химика до легковоспламенимой мебели.
Качество: HDTVRip 720p
Формат: MKV
Видео кодек: H.264
Аудио кодек: AC3
Видео: 1280x720 25.00 fps 4000 kbps
Аудио 1: (Rus) AC3 2ch, 48kHz, 192 kbps
Аудио 2: (En) AC3 2ch, 48kHz, 192 kbps

Скриншоты


MediaInfo:

Format : Matroska
Format version : Version 4 / Version 2
File size : 1.80 GiB
Duration : 58 min 46 s
Overall bit rate mode : Variable
Overall bit rate : 4 386 kb/s
Encoded date : UTC 2016-12-13 22:24:56
Writing application : mkvmerge v7.3.0 ('Nouages') 64bit built on Oct 22 2014 18:53:34
Writing library : libebml v1.3.0 + libmatroska v1.4.1
Video
ID : 1
Format : AVC
Format/Info : Advanced Video Codec
Format profile : High@L4.1
Format settings, CABAC : Yes
Format settings, ReFrames : 3 frames
Codec ID : V_MPEG4/ISO/AVC
Duration : 58 min 46 s
Bit rate mode : Variable
Bit rate : 4 000 kb/s
Maximum bit rate : 43.0 Mb/s
Width : 1 280 pixels
Height : 720 pixels
Display aspect ratio : 16:9
Frame rate mode : Constant
Frame rate : 25.000 FPS
Standard : NTSC
Color space : YUV
Chroma subsampling : 4:2:0
Bit depth : 8 bits
Scan type : Progressive
Bits/(Pixel*Frame) : 0.174
Stream size : 1.64 GiB (91%)
Writing library : x264 core 114
Encoding settings : cabac=1 / ref=3 / deblock=1:0:0 / analyse=0x3:0x113 / me=hex / subme=7 / psy=1 / psy_rd=1.00:0.00 / mixed_ref=1 / me_range=16 / chroma_me=1 / trellis=1 / 8x8dct=1 / cqm=2 / deadzone=21,11 / fast_pskip=1 / chroma_qp_offset=-4 / threads=6 / sliced_threads=0 / slices=1 / nr=0 / decimate=1 / interlaced=0 / constrained_intra=0 / bframes=3 / b_pyramid=0 / b_adapt=1 / b_bias=0 / direct=1 / weightb=1 / open_gop=0 / weightp=2 / keyint=250 / keyint_min=25 / scenecut=40 / intra_refresh=0 / rc_lookahead=40 / rc=2pass / mbtree=1 / bitrate=4000 / ratetol=1.0 / qcomp=0.60 / qpmin=5 / qpmax=69 / qpstep=4 / cplxblur=20.0 / qblur=0.5 / vbv_maxrate=43000 / vbv_bufsize=42991 / nal_hrd=vbr / ip_ratio=1.40 / aq=1:1.00
Default : Yes
Forced : No
Color range : Limited
Color primaries : BT.709
Transfer characteristics : BT.709
Matrix coefficients : BT.709
Audio #1
ID : 2
Format : AC-3
Format/Info : Audio Coding 3
Mode extension : CM (complete main)
Format settings, Endianness : Big
Codec ID : A_AC3
Duration : 58 min 45 s
Bit rate mode : Constant
Bit rate : 192 kb/s
Channel(s) : 2 channels
Channel positions : Front: L R
Sampling rate : 48.0 kHz
Frame rate : 31.250 FPS (1536 spf)
Compression mode : Lossy
Stream size : 80.7 MiB (4%)
Language : Russian
Default : Yes
Forced : No
Audio #2
ID : 3
Format : AC-3
Format/Info : Audio Coding 3
Mode extension : CM (complete main)
Format settings, Endianness : Big
Codec ID : A_AC3
Duration : 58 min 46 s
Bit rate mode : Constant
Bit rate : 192 kb/s
Channel(s) : 2 channels
Channel positions : Front: L R
Sampling rate : 48.0 kHz
Frame rate : 31.250 FPS (1536 spf)
Compression mode : Lossy
Stream size : 80.7 MiB (4%)
Language : English
Default : No
Forced : Yes
Viasat History: Скрытые угрозы / Hidden Killers [сезон 1 серии 1-4 из 4] (Сюзанна Филлипс) [2013 г., Документальный, история, SATRip]
BBC: Скрытые убийцы в домах послевоенного времени / Hidden Killers of The Post War Home (Suzanne Phillips) [2015 г., Документальный, история, HDTVRip 720p]
[Профиль] [ЛС]
Кто просматривает тему:

Показать сообщения:    

Текущее время: Сегодня 15:13

Часовой пояс: GMT



Вы не можете начинать темы
Вы не можете отвечать на сообщения
Вы не можете редактировать свои сообщения
Вы не можете удалять свои сообщения
Вы не можете голосовать в опросах
Вы не можете прикреплять файлы к сообщениям
Вы не можете скачивать файлы