BBC: Секреты квантовой физики / The Secrets of Quantum Physics (Тим Усборн) [2014 г., Документальный, физика, HDTVRip 720p]

 
Автор Сообщение

skorpionN ®

Пол:

Стаж: 2 года 6 месяцев

Сообщений: 805



Награды: 4 (Подробнее)

Mega Seeder 1 (Количество: 1) Mega Seeder 2 (Количество: 1) Top Releaser 2 (Количество: 1)
Торрент-статистика

Создавать темы 22-Ноя-2016 18:19

[Цитировать]

BBC: Секреты квантовой физики / The Secrets of Quantum Physics
Год выпуска: 2014
Страна: Великобритания, Furnace Limited for BBC
Жанр: Документальный, физика
Продолжительность: 2x~00:59:00
Перевод: Профессиональный (двухголосый), кинокомпания Видеофильм ТВ
Режиссер: Kenny Scott
В ролях: ведущий - профессор физики Джим Аль-Халили
Описание: Профессор физики Джим Аль-Халили исследует наиболее точную и одну из самых запутанных научных теорий - квантовую физику.
Список серий:
01. Кошмар Эйнштейна / Einsteins Nightmare
В начале 20-го века учёные проникли в скрытые глубины материи, в субатомные строительные блоки мира вокруг нас. Они обнаружили явления, которые отличаются от всего увиденного ранее. Мир, где всё может находится во многих местах одновременно, где действительность по-настоящему существует, лишь когда мы наблюдаем за ней. Альберт Эйнштейн противился одной только мысли о том, что в основе сущности природы лежит случайность. Джим расскажет, как в 1930-е годы Эйнштейн решил, что нашёл главный недостаток в квантовой физике. Квантовая физика подразумевает, что субатомные частицы могут взаимодействовать быстрее скорости света, а это противоречит его теории относительности. В 1960-е годы физик Джон Белл показал, что есть способ проверить, прав ли Эйнштейн, и не является ли квантовая механика ошибкой.
02. Да будет Жизнь / Let there be Life
Может ли квантовая физика объяснить величайшие тайны живой природы?
Навигация зарянки при перелётах связана с одним из самых странных явлений в физике - квантовой запутанностью. Кажется, что оно бросает вызов здравому смыслу. Джим считает, что даже в чувствах человека прослеживается квантовый след: обоняние использует квантовые колебания, а новые эксперименты показывают, что наш нос может слушать запахи. Джим расскажет, что когда растения и деревья в процессе фотосинтеза захватывают солнечный свет, они подчиняются известному закону квантовой физики - принципу неопределенности. Вопреки здравому смыслу, удивительные законы субатомного мира позволяют элементарным частицам преодолевать барьеры насквозь, как по туннелю. Может они оказывают влияние и на механизмы видоизменения живых организмов?
Качество: HDTVRip 720p
Формат: MKV
Видео кодек: H.264
Аудио кодек: AC3
Видео: 1280x720 25.00 fps 5000 kbps
Аудио 1: (Rus) AC3 2ch, 48kHz, 192 kbps
Аудио 2: (En) AC3 2ch, 48kHz, 192 kbps
Cубтитры: En - отключаемые

Скриншоты


MediaInfo:

Format : Matroska
Format version : Version 4 / Version 2
File size : 2.21 GiB
Duration : 58 min 59 s
Overall bit rate mode : Variable
Overall bit rate : 5 367 kb/s
Encoded date : UTC 2016-11-22 17:22:35
Writing application : mkvmerge v7.3.0 ('Nouages') 64bit built on Oct 22 2014 18:53:34
Writing library : libebml v1.3.0 + libmatroska v1.4.1
Video
ID : 1
Format : AVC
Format/Info : Advanced Video Codec
Format profile : High@L4.1
Format settings, CABAC : Yes
Format settings, ReFrames : 3 frames
Codec ID : V_MPEG4/ISO/AVC
Duration : 58 min 59 s
Bit rate mode : Variable
Bit rate : 5 000 kb/s
Maximum bit rate : 8 000 kb/s
Width : 1 280 pixels
Height : 720 pixels
Display aspect ratio : 16:9
Frame rate mode : Constant
Frame rate : 25.000 FPS
Standard : NTSC
Color space : YUV
Chroma subsampling : 4:2:0
Bit depth : 8 bits
Scan type : Progressive
Bits/(Pixel*Frame) : 0.217
Stream size : 2.05 GiB (93%)
Writing library : x264 core 114
Encoding settings : cabac=1 / ref=3 / deblock=1:0:0 / analyse=0x3:0x113 / me=hex / subme=7 / psy=1 / psy_rd=1.00:0.00 / mixed_ref=1 / me_range=16 / chroma_me=1 / trellis=1 / 8x8dct=1 / cqm=2 / deadzone=21,11 / fast_pskip=1 / chroma_qp_offset=-4 / threads=6 / sliced_threads=0 / slices=1 / nr=0 / decimate=1 / interlaced=0 / constrained_intra=0 / bframes=3 / b_pyramid=0 / b_adapt=1 / b_bias=0 / direct=1 / weightb=1 / open_gop=0 / weightp=2 / keyint=250 / keyint_min=25 / scenecut=40 / intra_refresh=0 / rc_lookahead=40 / rc=2pass / mbtree=1 / bitrate=5000 / ratetol=1.0 / qcomp=0.60 / qpmin=5 / qpmax=69 / qpstep=4 / cplxblur=20.0 / qblur=0.5 / vbv_maxrate=8000 / vbv_bufsize=7995 / nal_hrd=vbr / ip_ratio=1.40 / aq=1:1.00
Default : Yes
Forced : No
Color range : Limited
Color primaries : BT.709
Transfer characteristics : BT.709
Matrix coefficients : BT.709
Audio #1
ID : 2
Format : AC-3
Format/Info : Audio Coding 3
Mode extension : CM (complete main)
Format settings, Endianness : Big
Codec ID : A_AC3
Duration : 58 min 59 s
Bit rate mode : Constant
Bit rate : 192 kb/s
Channel(s) : 2 channels
Channel positions : Front: L R
Sampling rate : 48.0 kHz
Frame rate : 31.250 FPS (1536 spf)
Compression mode : Lossy
Stream size : 81.0 MiB (4%)
Language : Russian
Default : Yes
Forced : No
Audio #2
ID : 3
Format : AC-3
Format/Info : Audio Coding 3
Mode extension : CM (complete main)
Format settings, Endianness : Big
Codec ID : A_AC3
Duration : 58 min 59 s
Bit rate mode : Constant
Bit rate : 192 kb/s
Channel(s) : 2 channels
Channel positions : Front: L R
Sampling rate : 48.0 kHz
Frame rate : 31.250 FPS (1536 spf)
Compression mode : Lossy
Stream size : 81.0 MiB (4%)
Language : English
Default : No
Forced : Yes
Text
ID : 4
Format : UTF-8
Codec ID : S_TEXT/UTF8
Codec ID/Info : UTF-8 Plain Text
Duration : 58 min 50 s
Bit rate : 88 b/s
Count of elements : 824
Stream size : 38.2 KiB (0%)
Language : English
Default : No
Forced : No


Последний раз редактировалось: skorpionN (2016-11-22 18:43), всего редактировалось 1 раз
[Профиль] [ЛС]

ARI71

Стаж: 1 год 1 месяц

Сообщений: 82



Награды: Нет

Торрент-статистика

Создавать темы 22-Ноя-2016 18:26 (спустя 6 минут)

[Цитировать]

Спасибо!
[Профиль] [ЛС]
Кто просматривает тему:

Показать сообщения:    

Текущее время: Сегодня 00:52

Часовой пояс: GMT



Вы не можете начинать темы
Вы не можете отвечать на сообщения
Вы не можете редактировать свои сообщения
Вы не можете удалять свои сообщения
Вы не можете голосовать в опросах
Вы не можете прикреплять файлы к сообщениям
Вы не можете скачивать файлы