BBC: Связанные: Шесть ступеней отдаления / Connected: The Power of Six Degrees (Annamaria Talas) [2008 г., Документальный, научно-популярный, SATRip]

 
Автор Сообщение

skorpionN ®

Пол:

Стаж: 1 год 8 месяцев

Сообщений: 578



Награды: 4 (Подробнее)

Mega Seeder 3 (Количество: 1) Top Releaser 2 (Количество: 1) Mega Seeder 1 (Количество: 1)
Торрент-статистика

Создавать темы 04-Окт-2016 17:21

[Цитировать]

BBC: Связанные: Шесть ступеней отдаления / Connected: The Power of Six Degrees
Год выпуска: 2008
Страна: Великобритания, British Broadcasting Corporation (BBC), Discovery Channel Canada, Discovery Science Channel
Жанр: Документальный, научно-популярный
Продолжительность: 00:45:37
Перевод: Профессиональный (двухголосый), канал Da Vinci Learning
Режиссер: Annamaria Talas
В ролях: Nyaloka Auma, Kevin Bacon, Albert-Laszlo Barabasi
Описание: Нашу планету населяют более 6 000 000 000 человек. Возможно ли, что от Вас до любого человека всего лишь 6 шагов. Теория 6 шагов отдаления нашла то, что объединяет всех нас, то, что поможет найти лекарство от рака и предотвратить терроризм. Подтвердится ли данная теория практикой или останется просто мифом ? Фильм рассказывает о нестандартной теории: некий всеобъемлющий, фундаментальный закон природы объединяет все - от людей до вирусов.
Качество: SATRip
Формат: AVI
Видео кодек: XviD
Аудио кодек: AC3
Видео: 704x400 25.00 fps 1800 kbps
Аудио: AC3 2ch, 48kHz, 192 kbps

Скриншоты


MediaInfo:

Format/Info : Audio Video Interleave
File size : 652 MiB
Duration : 45 min
Overall bit rate : 1 997 kb/s
Writing application : TMPGEnc Video Mastering Works 5 Version. 5.0.6.38
Writing library : TMPGEnc Video Mastering Works 5 Version. 5.0.6.38
Video
ID : 0
Format : MPEG-4 Visual
Format profile : Advanced Simple@L5
Format settings, BVOP : 2
Format settings, QPel : No
Format settings, GMC : No warppoints
Format settings, Matrix : Default (H.263)
Muxing mode : Packed bitstream
Codec ID : XVID
Codec ID/Hint : XviD
Duration : 45 min
Bit rate : 1 797 kb/s
Width : 704 pixels
Height : 400 pixels
Display aspect ratio : 16:9
Frame rate : 25.000 FPS
Color space : YUV
Chroma subsampling : 4:2:0
Bit depth : 8 bits
Scan type : Progressive
Compression mode : Lossy
Bits/(Pixel*Frame) : 0.255
Stream size : 586 MiB (90%)
Writing library : XviD 73
Audio
ID : 1
Format : AC-3
Format/Info : Audio Coding 3
Mode extension : CM (complete main)
Format settings, Endianness : Big
Codec ID : 2000
Duration : 45 min
Bit rate mode : Constant
Bit rate : 192 kb/s
Channel(s) : 2 channels
Channel positions : Front: L R
Sampling rate : 48.0 kHz
Frame rate : 31.250 FPS (1536 spf)
Compression mode : Lossy
Stream size : 62.7 MiB (10%)
Alignment : Aligned on interleaves
Interleave, duration : 240 ms (6.00 video frames)
Interleave, preload duration : 224 ms
[Профиль] [ЛС]

KiruhaDelMar

Стаж: 1 год 8 месяцев

Сообщений: 243



Награды: Нет

Торрент-статистика

Создавать темы 04-Окт-2016 18:06 (спустя 45 минут)

[Цитировать]

Зайди ко мне в группу, язык откусишь tease


Последний раз редактировалось: KiruhaDelMar (2016-10-04 18:14), всего редактировалось 4 раз(а)
[Профиль] [ЛС]

ARI71

Стаж: 3 месяца 20 дней

Сообщений: 60



Награды: Нет

Торрент-статистика

Создавать темы 04-Окт-2016 18:07 (спустя 53 секунды)

[Цитировать]

Спасибо за новый релиз!
[Профиль] [ЛС]

ARI71

Стаж: 3 месяца 20 дней

Сообщений: 60



Награды: Нет

Торрент-статистика

Создавать темы 04-Окт-2016 18:29 (спустя 21 минута)

[Цитировать]

++++++++++++++++++++++++++++++++++++++


Последний раз редактировалось: ARI71 (2016-10-08 20:12), всего редактировалось 1 раз
[Профиль] [ЛС]

KiruhaDelMar

Стаж: 1 год 8 месяцев

Сообщений: 243



Награды: Нет

Торрент-статистика

Создавать темы 04-Окт-2016 19:53 (спустя 1 час 24 минуты)

[Цитировать]

Та да, это просто ты себя в этом убедил, но если копнуть глубже то у всего есть одно начало, корень всех зол так сказать, даже мать готова отдать жизнь за своего ребенка не потому что она его любит, а потому что природа ее заставляет это делать, в противном случае она будет страдать, то есть если смотреть глубже то мать подчиняется примитивным инстинктам и делает все не для ребенка, а для себя, не дала конфету мучайся, заболел тоже получай. Чувства это регулятор, программа, которую заложила природа, естественный отбор и все такое слыхал?
Так что если заглянешь к себе в душу поглубже то узнаешь настоящую причину, а слоган "ДЛЯ ЛЮДЕЙ' оставь для демонстраций и плакатов fansнет никаких людей, это самообман
[Профиль] [ЛС]

KiruhaDelMar

Стаж: 1 год 8 месяцев

Сообщений: 243



Награды: Нет

Торрент-статистика

Создавать темы 04-Окт-2016 20:07 (спустя 13 минут)

[Цитировать]

Даже не вникая глубоко, твою "теорию относительности" без труда можно как консервную банку вскрыть, но не хочу веру ломать, безверие это тяжелая ноша, не каждый правду может выдержать bx Если делаешь для людей, тогда я по твоему кто, не человек? Вот я человек стою перед тобой и говорю что мне от этого только хуже, а ты все равно утверждаешь что делаешь для людей, странная какая та логика bn
И я совсем не злой и не жадный, я знаю что такое совесть, честь, гордость и мораль, это все к сожалению есть и у меня, а правда и справедливость стоят на первом месте, и эти чувства сейчас задеты


Последний раз редактировалось: KiruhaDelMar (2016-10-04 20:17), всего редактировалось 4 раз(а)
[Профиль] [ЛС]

ARI71

Стаж: 3 месяца 20 дней

Сообщений: 60



Награды: Нет

Торрент-статистика

Создавать темы 04-Окт-2016 20:09 (спустя 2 минуты)

[Цитировать]

++++++++++++++++++++++++++++++


Последний раз редактировалось: ARI71 (2016-10-08 20:12), всего редактировалось 2 раз(а)
[Профиль] [ЛС]

skorpionN ®

Пол:

Стаж: 1 год 8 месяцев

Сообщений: 578



Награды: 4 (Подробнее)

Mega Seeder 3 (Количество: 1) Mega Seeder 1 (Количество: 1) Mega Seeder 2 (Количество: 1)
Торрент-статистика

Создавать темы 04-Окт-2016 20:10 (спустя 54 секунды)

[Цитировать]

Я же говорил "... хорош излагает, собака" bk
[Профиль] [ЛС]

ARI71

Стаж: 3 месяца 20 дней

Сообщений: 60



Награды: Нет

Торрент-статистика

Создавать темы 04-Окт-2016 20:25 (спустя 14 минут)

[Цитировать]

+++++++++++++++++++++++++++++++++++++++++++++++++++++
[Профиль] [ЛС]
Кто просматривает тему:

Показать сообщения:    

Текущее время: Сегодня 00:39

Часовой пояс: GMT



Вы не можете начинать темы
Вы не можете отвечать на сообщения
Вы не можете редактировать свои сообщения
Вы не можете удалять свои сообщения
Вы не можете голосовать в опросах
Вы не можете прикреплять файлы к сообщениям
Вы не можете скачивать файлы