Расшифрованные сокровища (Сокровища мира) / Treasures Decoded [сезоны 1-3 серии 17 из 17] (Jo Locke, David New, Graeme Ball, Toby Trackman) [2013 -2016 гг.., Документальный, альтернативная история, псевдоистория, SATRip]

 
Автор Сообщение

skorpionN ®

Пол:

Стаж: 2 года 3 месяца

Сообщений: 719



Награды: 4 (Подробнее)

Mega Seeder 2 (Количество: 1) Mega Seeder 1 (Количество: 1) Mega Seeder 3 (Количество: 1)
Торрент-статистика

Создавать темы 04-Июн-2016 13:30

[Цитировать]

Расшифрованные сокровища (Сокровища мира) / Treasures Decoded сезоны 1-3 серии 17 из 17]
Год выпуска: 2013-2016
Страна: Великобритания, Канада, Entertainment One & Blink Films
Жанр: Документальный, альтернативная история, псевдоистория
Продолжительность: 17x~00:45:00
Перевод: Профессиональный (двухголосый), Видеофильм ТВ, студия "Кондор" по заказу ГТРК Культура, компания SDI Media по заказу ТПО "Ред Медиа"
Режиссер: Jo Locke, David New, Graeme Ball, Toby Trackman, Ana Thomson
Описание: Сокровища прошлого хранят секреты; написанные кровью, камнем, золотом... Все они обладают удивительными тайнами, которые были неизвестны до сих пор. В новом сезоне документального цикла "Расшифрованные сокровища" с помощью экспертов мы попытаемся раскрыть всю правду.
Список серий:
Сезон 1:
01. Туринская плащаница / The Turin Shroud
02. Жена Иисуса / Jesus' Wife
03. Сфинкс / The Sphinx
04. Золотой плот Эльдорадо / The Golden Raft of El Dorado
05. Карта Винланда / The Vinland Map

Сезон 2:
01. Моаи острова Пасхи / Easter Island Heads
02. Портрет Нефертити / Bust of Nefertiti
03. Великая пирамида / Great Pyramid
04. Корабль Чёрной Бороды / Blackbeard's Ship
05. Ковчег завета / Ark of the Covenant
06. Копьё судьбы / Christ's Holy Spear

Сезон 3:
01. В поисках Атлантиды / The Search for Atlantis
02. Таинственный город пирамид Америки / America's Hidden Pyramid City
03. В поисках Святого Грааля / The Truth About the Holy Grail
04. Карта сокровищ Мёртвого моря (Секреты Медных свитков) / The Dead Sea Treasure Map (Secrets The Copper Scroll)
05. Затерянный город фараонов / The Lost City of the Pharaohs
06. Гробница Тутанхамона: тайная комната / King Tut's Tomb: The Hidden Chamber

Качество: SATRip
Формат: AVI
Видео кодек: XviD
Аудио кодек: AC3
Видео: 720x400 25fps 1800 Kbps
Аудио: AC3 2ch, 48kHz, 192 kbps

Скриншоты


MediaInfo:

Format : AVI
Format/Info : Audio Video Interleave
File size : 670 MiB
Duration : 46mn 53s
Overall bit rate : 1 997 Kbps
Writing application : VirtualDubMod 1.5.10.3 | www.virtualdub-fr.org || (build 2550/release)
Writing library : VirtualDubMod build 2550/release
Video
ID : 0
Format : MPEG-4 Visual
Format profile : Advanced Simple@L5
Format settings, BVOP : Yes
Format settings, QPel : No
Format settings, GMC : No warppoints
Format settings, Matrix : Default (H.263)
Codec ID : XVID
Codec ID/Hint : XviD
Duration : 46mn 53s
Bit rate : 1 795 Kbps
Width : 720 pixels
Height : 400 pixels
Display aspect ratio : 16:9
Frame rate : 25.000 fps
Color space : YUV
Chroma subsampling : 4:2:0
Bit depth : 8 bits
Scan type : Progressive
Compression mode : Lossy
Bits/(Pixel*Frame) : 0.249
Stream size : 602 MiB (90%)
Writing library : XviD 67
Audio
ID : 1
Format : AC-3
Format/Info : Audio Coding 3
Mode extension : CM (complete main)
Format settings, Endianness : Big
Codec ID : 2000
Duration : 46mn 53s
Bit rate mode : Constant
Bit rate : 192 Kbps
Channel(s) : 2 channels
Channel positions : Front: L R
Sampling rate : 48.0 KHz
Bit depth : 16 bits
Compression mode : Lossy
Stream size : 64.4 MiB (10%)
Alignment : Split accross interleaves
Interleave, duration : 40 ms (1.00 video frame)
Interleave, preload duration : 500 ms

Внимание:

Раздача ведётся путём добавления новых серий; при каждом добавлении создаётся новый торрент. Чтобы начать докачку новой серии, пользователям необходимо сделать следующее:
- Остановить скачивание.
- Удалить старый торрент у себя из клиента (старые серии удалять не надо).
- Скачать новый торрент и запустить его у себя в клиенте вместо старого, при этом указать клиенту путь в старую папку куда и должно происходить скачивание новых серий.
Добавлено:
Сезон 3:
01. В поисках Атлантиды / The Search for Atlantis
02. Таинственный город пирамид Америки / America's Hidden Pyramid City
03. В поисках Святого Грааля / The Truth About the Holy Grail
04. Карта сокровищ Мёртвого моря (Секреты Медных свитков) / The Dead Sea Treasure Map (Secrets The Copper Scroll)
05. Затерянный город фараонов / The Lost City of the Pharaohs
06. Гробница Тутанхамона: тайная комната / King Tut's Tomb: The Hidden Chamber


Последний раз редактировалось: skorpionN (2017-01-19 13:40), всего редактировалось 3 раз(а)
[Профиль] [ЛС]

ARI71

Стаж: 10 месяцев 12 дней

Сообщений: 72



Награды: Нет

Торрент-статистика

Создавать темы 29-Сен-2016 14:44 (спустя 3 месяца 25 дней)

[Цитировать]

К сожалению Эта серия со средины идёт полностью без звука и с искажениями видео s01e02_Jesus' Wife
[Профиль] [ЛС]

skorpionN ®

Пол:

Стаж: 2 года 3 месяца

Сообщений: 719



Награды: 4 (Подробнее)

Mega Seeder 3 (Количество: 1) Top Releaser 2 (Количество: 1) Mega Seeder 2 (Количество: 1)
Торрент-статистика

Создавать темы 29-Сен-2016 21:15 (спустя 6 часов)

[Цитировать]

Да не может такого быть. Эта серия давно в сети и никаких нареканий. Может у кого из сидириющих попалась битая часть
[Профиль] [ЛС]

ARI71

Стаж: 10 месяцев 12 дней

Сообщений: 72



Награды: Нет

Торрент-статистика

Создавать темы 30-Сен-2016 18:49 (спустя 21 час)

[Цитировать]

Может у кого из сидириющих попалась битая часть
Может...Но это действительно так! поверь. Я проверил на нескольких видео-плеерах. Просто видимо никто не пишет, серий много, и эта теряется среди остальных. Я выложил твой релиз на свой сайт. тоже все молчат, сейчас я так подметил юзер уже не тот пошёл, стали намного меньше комменты к релизам оставлять, при чём на многих ресурсах, (боятся что ли), разве что за исключением кино зала, там комментов хватает... А так всё отлично спасибо за релиз!
[Профиль] [ЛС]

KiruhaDelMar

Стаж: 2 года 3 месяца

Сообщений: 264



Награды: Нет

Торрент-статистика

Создавать темы 01-Окт-2016 09:12 (спустя 14 часов)

[Цитировать]

102336Да не может такого быть. Эта серия давно в сети и никаких нареканий.
Нет ничего не возможного , Нарекания не поступали потому что мой канал удалили вместе с серией, а так бы по шее уже давно получил bx
, давай переделывай бездельник hunter
Паханенок Иисуса разгневается и отправит в нижние Канары на вечное место жительство bg
[Профиль] [ЛС]

skorpionN ®

Пол:

Стаж: 2 года 3 месяца

Сообщений: 719



Награды: 4 (Подробнее)

Mega Seeder 1 (Количество: 1) Top Releaser 2 (Количество: 1) Mega Seeder 3 (Количество: 1)
Торрент-статистика

Создавать темы 01-Окт-2016 11:13 (спустя 2 часа 1 минута)

[Цитировать]

Перезалил
[Профиль] [ЛС]

KiruhaDelMar

Стаж: 2 года 3 месяца

Сообщений: 264



Награды: Нет

Торрент-статистика

Создавать темы 01-Окт-2016 17:56 (спустя 6 часов)

[Цитировать]

О. а говорил нема.. Путевка в "Нижние Канары" лучшая мотивация bj Веришь, не веришь, а спинка чешется bg
[Профиль] [ЛС]

ARI71

Стаж: 10 месяцев 12 дней

Сообщений: 72



Награды: Нет

Торрент-статистика

Создавать темы 02-Окт-2016 05:42 (спустя 11 часов)

[Цитировать]

Спасибо за перезалитую серию!
[Профиль] [ЛС]
Показать сообщения:    

Текущее время: Сегодня 00:26

Часовой пояс: GMT



Вы не можете начинать темы
Вы не можете отвечать на сообщения
Вы не можете редактировать свои сообщения
Вы не можете удалять свои сообщения
Вы не можете голосовать в опросах
Вы не можете прикреплять файлы к сообщениям
Вы не можете скачивать файлы